<?xml version="1.0" standalone="no"?>
<!DOCTYPE svg PUBLIC "-//W3C//DTD SVG 1.1//EN" "http://www.w3.org/Graphics/SVG/1.1/DTD/svg11.dtd" >
<svg xmlns="http://www.w3.org/2000/svg" xmlns:xlink="http://www.w3.org/1999/xlink" version="1.1">
<metadata>
Created by FontForge 20170731 at Tue Aug  3 13:10:13 2004
 By Aleksey,,,
(c) 2004 Microsoft Corporation. All Rights Reserved.
</metadata>
<defs>
<font id="Cambria" horiz-adv-x="1348" >
  <font-face 
    font-family="Cambria"
    font-weight="400"
    font-stretch="normal"
    units-per-em="2048"
    panose-1="2 4 5 3 5 4 6 3 2 4"
    ascent="1593"
    descent="-455"
    x-height="956"
    cap-height="1365"
    bbox="-624 -568 2482 1946"
    underline-thickness="116"
    underline-position="-299"
    unicode-range="U+000D-FB04"
  />
<missing-glyph 
d="M567 487v22q0 22 3 40.5t14 39.5t32 47.5t57 65.5q23 25 42 48.5t32.5 49t21 54t7.5 63.5q0 75 -32.5 116t-94.5 41q-32 0 -56 -10t-42 -28t-30.5 -43t-21.5 -55h-96v130q60 30 128.5 53t135.5 23q70 0 119.5 -14.5t80.5 -40t45 -60.5t14 -76q0 -38 -7.5 -69t-25.5 -61.5
t-48 -65.5t-74 -80q-32 -33 -51 -55t-29.5 -41.5t-14 -39.5t-3.5 -48v-6h-106zM691 377v-161h-144v161h144zM1055 93v1178h-762v-1178h762zM1158 1364v-1364h-968v1364h968z" />
    <glyph glyph-name="uniFB03" unicode="f&#xfb01;" horiz-adv-x="1809" 
d="M1309 1244h-82q-11 55 -32.5 79.5t-61.5 24.5q-37 0 -63.5 -17t-45 -53.5t-25.5 -94.5t-7 -139v-88h239v-101h-239v-605q0 -67 6.5 -101t19 -51.5t33 -28t65.5 -20.5v-49h-409v49q44 12 63 23t29.5 28t15.5 49t5 101v605h-448v-605q0 -67 6.5 -101t19 -51.5t33 -28
t65.5 -20.5v-49h-409v49q44 12 63 23t29.5 28t15.5 49t5 101v605h-121v51q39 7 51 10t23.5 10t20 20t15 38.5t10.5 71.5q9 109 39.5 177t89 116t125 67.5t156.5 19.5q79 0 134 -11v-181h-99q-19 59 -44.5 83.5t-71.5 24.5q-33 0 -55.5 -9t-41.5 -28t-32.5 -51t-20 -79.5
t-6.5 -123.5v-105h427q15 26 20 100q7 123 56.5 209t132.5 128.5t193 42.5q57 0 108 -9v-183zM1624 1348v-194h-184v194h184zM1337 49q38 12 55 21t29 25t18 49t6 103v436q0 64 -2 103t-14 62.5t-36.5 35t-69.5 19.5v53l233 9h61v-715q0 -86 8 -119.5t30.5 -51t73.5 -30.5
v-49h-392v49z" />
    <glyph glyph-name="uniFB04" unicode="f&#xfb02;" horiz-adv-x="1795" 
d="M1604 250q0 -86 8 -119.5t30.5 -51t73.5 -30.5v-49h-397v49q44 12 63 23t29.5 28t15.5 49t5 101v837q0 96 -1.5 134t-8 64t-17.5 41t-30.5 24.5t-65.5 17.5v-124h-82q-11 55 -32.5 79.5t-61.5 24.5q-37 0 -63.5 -17t-45 -53.5t-25.5 -94.5t-7 -139v-88h239v-101h-239
v-605q0 -67 6.5 -101t19 -51.5t33 -28t65.5 -20.5v-49h-409v49q44 12 63 23t29.5 28t15.5 49t5 101v605h-448v-605q0 -67 6.5 -101t19 -51.5t33 -28t65.5 -20.5v-49h-409v49q44 12 63 23t29.5 28t15.5 49t5 101v605h-121v51q39 7 51 10t23.5 10t20 20t15 38.5t10.5 71.5
q9 109 39.5 177t89 116t125 67.5t156.5 19.5q79 0 134 -11v-181h-99q-19 59 -44.5 83.5t-71.5 24.5q-33 0 -55.5 -9t-41.5 -28t-32.5 -51t-20 -79.5t-6.5 -123.5v-105h427q15 26 20 100q7 123 56.5 209t132.5 128.5t193 42.5q57 0 108 -9v-6l235 10h60v-1181z" />
    <glyph glyph-name="uniFB00_b.liga" unicode="&#xfb00;b" horiz-adv-x="2365" 
d="M1593 799l4 -1q70 73 116.5 106t96 50.5t108.5 17.5q107 0 183.5 -54.5t118 -163.5t41.5 -267q0 -163 -49.5 -275.5t-146 -170t-228.5 -57.5q-74 0 -139.5 13.5t-137.5 47.5l-70 -61l-69 16v1087q0 93 -1.5 131.5t-7.5 65t-16.5 41t-29 24t-57.5 17.5v-122h-82
q-11 55 -32.5 79.5t-61.5 24.5q-37 0 -63.5 -17t-45 -53.5t-25.5 -94.5t-7 -139v-88h239v-101h-239v-605q0 -67 6.5 -101t19 -51.5t33 -28t65.5 -20.5v-49h-409v49q44 12 63 23t29.5 28t15.5 49t5 101v605h-448v-605q0 -67 6.5 -101t19 -51.5t33 -28t65.5 -20.5v-49h-409v49
q44 12 63 23t29.5 28t15.5 49t5 101v605h-121v51q39 7 51 10t23.5 10t20 20t15 38.5t10.5 71.5q9 109 39.5 177t89 116t125 67.5t156.5 19.5q79 0 134 -11v-181h-99q-19 59 -44.5 83.5t-71.5 24.5q-33 0 -55.5 -9t-41.5 -28t-32.5 -51t-20 -79.5t-6.5 -123.5v-105h427
q15 26 20 100q7 123 56.5 209t132.5 128.5t193 42.5q57 0 108 -9v-6l225 10h59v-632zM1593 360q0 -77 7 -122.5t23.5 -75.5t48 -55t70.5 -34.5t87 -9.5q120 0 182 98t62 294q0 198 -56.5 297.5t-170.5 99.5q-57 0 -97 -17.5t-79.5 -54.5t-58 -73t-18.5 -82v-265z" />
    <glyph glyph-name="uniFB00_h.liga" unicode="&#xfb00;h" horiz-adv-x="2370" 
d="M1604 799l4 -1q78 79 123.5 110.5t90 47.5t95.5 16q55 0 98 -13t75.5 -39.5t53 -65t30.5 -92t10 -135.5v-377q0 -87 7.5 -118.5t27 -49t78.5 -33.5v-49h-394v49q39 12 56 21t28.5 25t18 49.5t6.5 101.5v262q0 133 -13.5 203.5t-53 105.5t-110.5 35q-40 0 -72 -14t-74 -50
t-63.5 -74t-21.5 -81v-383q0 -68 3.5 -97t13.5 -48.5t30.5 -32t63.5 -23.5v-49h-396v49q44 12 63 23t29.5 28t15.5 49t5 101v837q0 96 -1.5 134t-8 64t-17.5 41t-30.5 24.5t-65.5 17.5v-124h-82q-11 55 -32.5 79.5t-61.5 24.5q-37 0 -63.5 -17t-45 -53.5t-25.5 -94.5
t-7 -139v-88h239v-101h-239v-605q0 -67 6.5 -101t19 -51.5t33 -28t65.5 -20.5v-49h-409v49q44 12 63 23t29.5 28t15.5 49t5 101v605h-448v-605q0 -67 6.5 -101t19 -51.5t33 -28t65.5 -20.5v-49h-409v49q44 12 63 23t29.5 28t15.5 49t5 101v605h-121v51q39 7 51 10t23.5 10
t20 20t15 38.5t10.5 71.5q9 109 39.5 177t89 116t125 67.5t156.5 19.5q79 0 134 -11v-181h-99q-19 59 -44.5 83.5t-71.5 24.5q-33 0 -55.5 -9t-41.5 -28t-32.5 -51t-20 -79.5t-6.5 -123.5v-105h427q15 26 20 100q7 123 56.5 209t132.5 128.5t193 42.5q57 0 108 -9v-6l235 10
h60v-632z" />
    <glyph glyph-name="uniFB00_j.liga" unicode="&#xfb00;j" horiz-adv-x="1785" 
d="M1309 1244h-82q-11 55 -32.5 79.5t-61.5 24.5q-37 0 -63.5 -17t-45 -53.5t-25.5 -94.5t-7 -139v-88h239v-101h-239v-605q0 -67 6.5 -101t19 -51.5t33 -28t65.5 -20.5v-49h-409v49q44 12 63 23t29.5 28t15.5 49t5 101v605h-448v-605q0 -67 6.5 -101t19 -51.5t33 -28
t65.5 -20.5v-49h-409v49q44 12 63 23t29.5 28t15.5 49t5 101v605h-121v51q39 7 51 10t23.5 10t20 20t15 38.5t10.5 71.5q9 109 39.5 177t89 116t125 67.5t156.5 19.5q79 0 134 -11v-181h-99q-19 59 -44.5 83.5t-71.5 24.5q-33 0 -55.5 -9t-41.5 -28t-32.5 -51t-20 -79.5
t-6.5 -123.5v-105h427q15 26 20 100q7 123 56.5 209t132.5 128.5t193 42.5q57 0 108 -9v-183zM1622 1348v-194h-183v194h183zM1608 19q0 -140 -29 -224t-100.5 -142.5t-199.5 -95.5l-34 88q62 24 94.5 45.5t53.5 50t32 76.5t11 123v743q0 78 -3 112t-13 53.5t-31 31.5
t-76 23v53l234 9h61v-946z" />
    <glyph glyph-name="uniFB00_k.liga" unicode="&#xfb00;k" horiz-adv-x="2314" 
d="M1604 557h32q33 0 54 7q25 9 55 30.5t85 72.5q46 43 69.5 73t32.5 55q8 21 8 42q0 30 -18.5 47t-60.5 23v49h431v-49q-46 -9 -98 -41t-107 -84l-230 -218l288 -376q50 -66 90.5 -97.5t88.5 -41.5v-49h-384v49q26 3 38.5 11.5t12.5 28.5q0 15 -5.5 29.5t-22.5 39.5t-62 87
l-119 160q-34 45 -48.5 59t-30.5 20t-43 6h-56v-240q0 -86 8 -119.5t30.5 -51t73.5 -30.5v-49h-397v49q44 12 63 23t29.5 28t15.5 49t5 101v837q0 96 -1.5 134t-8 64t-17.5 41t-30.5 24.5t-65.5 17.5v-124h-82q-11 55 -32.5 79.5t-61.5 24.5q-37 0 -63.5 -17t-45 -53.5
t-25.5 -94.5t-7 -139v-88h239v-101h-239v-605q0 -67 6.5 -101t19 -51.5t33 -28t65.5 -20.5v-49h-409v49q44 12 63 23t29.5 28t15.5 49t5 101v605h-448v-605q0 -67 6.5 -101t19 -51.5t33 -28t65.5 -20.5v-49h-409v49q44 12 63 23t29.5 28t15.5 49t5 101v605h-121v51
q39 7 51 10t23.5 10t20 20t15 38.5t10.5 71.5q9 109 39.5 177t89 116t125 67.5t156.5 19.5q79 0 134 -11v-181h-99q-19 59 -44.5 83.5t-71.5 24.5q-33 0 -55.5 -9t-41.5 -28t-32.5 -51t-20 -79.5t-6.5 -123.5v-105h427q15 26 20 100q7 123 56.5 209t132.5 128.5t193 42.5
q57 0 108 -9v-6l235 10h60v-874z" />
    <glyph glyph-name=".notdef" 
d="M567 487v22q0 22 3 40.5t14 39.5t32 47.5t57 65.5q23 25 42 48.5t32.5 49t21 54t7.5 63.5q0 75 -32.5 116t-94.5 41q-32 0 -56 -10t-42 -28t-30.5 -43t-21.5 -55h-96v130q60 30 128.5 53t135.5 23q70 0 119.5 -14.5t80.5 -40t45 -60.5t14 -76q0 -38 -7.5 -69t-25.5 -61.5
t-48 -65.5t-74 -80q-32 -33 -51 -55t-29.5 -41.5t-14 -39.5t-3.5 -48v-6h-106zM691 377v-161h-144v161h144zM1055 93v1178h-762v-1178h762zM1158 1364v-1364h-968v1364h968z" />
    <glyph glyph-name="glyph1" horiz-adv-x="0" 
 />
    <glyph glyph-name="glyph1" horiz-adv-x="0" 
 />
    <glyph glyph-name="uni000D" unicode="&#xd;" horiz-adv-x="451" 
 />
    <glyph glyph-name="space" unicode=" " horiz-adv-x="451" 
 />
    <glyph glyph-name="space" unicode="&#xa0;" horiz-adv-x="451" 
 />
    <glyph glyph-name="exclam" unicode="!" horiz-adv-x="585" 
d="M403 1365l-65 -949h-97l-49 949h211zM393 232v-232h-200v232h200z" />
    <glyph glyph-name="quotedbl" unicode="&#x22;" horiz-adv-x="805" 
d="M340 1431l-64 -467h-105l-26 467h195zM678 1431l-63 -467h-106l-25 467h194z" />
    <glyph glyph-name="numbersign" unicode="#" horiz-adv-x="1268" 
d="M943 834l-42 -297h209v-114h-226l-58 -423h-135l60 423h-307l-58 -423h-135l59 423h-200v114h215l43 297h-208v115h224l58 417h135l-60 -417h308l59 417h134l-60 -417h200v-115h-215zM502 834l-42 -297h307l42 297h-307z" />
    <glyph glyph-name="dollar" unicode="$" horiz-adv-x="1036" 
d="M584 1344q175 -1 329 -57v-216h-99q-27 91 -83 136.5t-147 48.5v-481q140 -67 210 -120t107 -118t37 -153q0 -163 -91 -251.5t-269 -102.5v-186h-104v184q-89 2 -189.5 21t-172.5 46v220h100q24 -103 85.5 -150.5t176.5 -51.5v518l-25 12q-131 63 -194 110.5t-97 106.5
t-34 138q0 76 28 136t76.5 103t113.5 68.5t138 32.5v191h104v-185zM480 815v438q-86 -11 -138.5 -65.5t-52.5 -135.5t44.5 -134.5t146.5 -102.5zM578 592v-476q93 10 143 67.5t50 154.5q0 86 -46 145t-147 109zM1036 1365z" />
    <glyph glyph-name="percent" unicode="%" horiz-adv-x="1822" 
d="M409 517q-153 0 -228.5 106t-75.5 319q0 148 40.5 246.5t111 145.5t163.5 47q87 0 146 -31t95.5 -86.5t52 -133t15.5 -170.5q0 -219 -82.5 -331t-237.5 -112zM253 959q0 -194 40 -282t127 -88q82 0 121.5 82t39.5 262q0 192 -39.5 284t-122.5 92q-63 0 -99.5 -42
t-51.5 -118.5t-15 -189.5zM1426 1365l-882 -1461h-147l884 1461h145zM1397 -112q-153 0 -228.5 106t-75.5 319q0 148 40.5 246.5t111 145.5t163.5 47q87 0 146 -31t95.5 -86.5t52 -133t15.5 -170.5q0 -219 -82.5 -331t-237.5 -112zM1241 330q0 -194 40 -282t127 -88
q82 0 121.5 82t39.5 262q0 192 -39.5 284t-122.5 92q-63 0 -99.5 -42t-51.5 -118.5t-15 -189.5z" />
    <glyph glyph-name="ampersand" unicode="&#x26;" horiz-adv-x="1408" 
d="M894 136q-102 -82 -197.5 -117t-211.5 -35q-121 0 -211 41.5t-137.5 117.5t-47.5 179q0 82 30.5 148.5t98 129.5t183.5 130q-73 96 -104 174.5t-31 160.5q0 93 48 164.5t136.5 111.5t196.5 40q67 0 125.5 -13.5t102 -43.5t68.5 -78t25 -117q0 -33 -7 -63.5t-21 -58
t-36.5 -56.5t-62 -63t-100.5 -72t-135 -80q50 -67 150 -186t201 -230q67 69 99.5 138t32.5 142q0 52 -24 78t-77 32v49h285v-49q0 -14 -10 -59q-6 -29 -15 -58q-9 -28 -21 -56t-27 -55q-15 -29 -34 -57t-41 -56q-23 -29 -51 -58q-27 -29 -58 -58q49 -57 85.5 -89t65 -45.5
t59.5 -13.5q30 0 57.5 14t73.5 53l46 -57q-60 -62 -125.5 -96.5t-125.5 -34.5q-49 0 -85.5 13t-74.5 43t-98 96zM550 804q128 68 193.5 146t65.5 163q0 57 -21.5 98.5t-61.5 63t-91 21.5q-59 0 -104.5 -25.5t-71 -74t-25.5 -114.5q0 -61 25.5 -125t90.5 -153zM456 658
q-98 -64 -143 -134.5t-45 -160.5q0 -83 34 -143.5t93 -90.5t133 -30q87 0 157 23t149 81q-32 36 -92 106l-165 197q-41 50 -73 90z" />
    <glyph glyph-name="quotesingle" unicode="'" horiz-adv-x="485" 
d="M358 1431l-73 -477h-106l-34 477h213z" />
    <glyph glyph-name="parenleft" unicode="(" horiz-adv-x="782" 
d="M739 -435q-170 0 -277.5 51t-167.5 155.5t-87 271.5t-27 453q0 284 26.5 452.5t86.5 274.5t168 159t278 53v-82q-70 0 -124 -12q-61 -14 -104 -54q-48 -44 -78 -123q-35 -92 -52 -244q-18 -161 -18 -416q0 -225 15 -382.5t50 -257.5q28 -84 70 -131q37 -41 88 -62
q59 -24 153 -24v-82z" />
    <glyph glyph-name="parenright" unicode=")" horiz-adv-x="782" 
d="M43 1435q170 0 277.5 -51t167.5 -155.5t87 -271.5t27 -453q0 -284 -26.5 -452.5t-86.5 -274.5t-168 -159t-278 -53v82q70 0 124 12q61 14 104 54q48 44 78 123q35 92 52 244q18 161 18 416q0 225 -15 382.5t-50 257.5q-28 84 -70 131q-37 41 -88 62q-59 24 -153 24v82z
" />
    <glyph glyph-name="asterisk" unicode="*" horiz-adv-x="875" 
d="M797 920l-65 -111l-257 181l29 -313h-132l30 313l-258 -181l-66 111l286 134l-286 133l66 112l258 -181l-30 313h132l-29 -313l257 181l65 -112l-285 -133z" />
    <glyph glyph-name="plus" unicode="+" horiz-adv-x="1134" 
d="M640 516v-379h-147v379h-369v139h369v378h147v-378h370v-139h-370z" />
    <glyph glyph-name="comma" unicode="," horiz-adv-x="420" 
d="M309 232q14 -70 14 -138q0 -70 -24 -128t-76.5 -115.5t-144.5 -126.5l-54 61q51 48 74 86.5t33 87.5t10 123q0 76 -7 150h175z" />
    <glyph glyph-name="hyphen" unicode="-" horiz-adv-x="680" 
d="M572 449h-464v155h464v-155z" />
    <glyph glyph-name="hyphen" unicode="&#x2010;" horiz-adv-x="680" 
d="M572 449h-464v155h464v-155z" />
    <glyph glyph-name="hyphen" unicode="&#xad;" horiz-adv-x="680" 
d="M572 449h-464v155h464v-155z" />
    <glyph glyph-name="period" unicode="." horiz-adv-x="420" 
d="M311 232v-232h-202v232h202z" />
    <glyph glyph-name="slash" unicode="/" horiz-adv-x="1004" 
d="M941 1431l-722 -1861h-157l724 1861h155z" />
    <glyph glyph-name="zero" unicode="0" horiz-adv-x="1134" 
d="M556 -16q-216 0 -321.5 170t-105.5 516q0 184 32.5 318t91 221.5t140.5 129.5t179 42q219 0 326 -169t107 -511q0 -354 -114.5 -535.5t-334.5 -181.5zM324 700q0 -326 60.5 -478.5t187.5 -152.5q121 0 179.5 143.5t58.5 444.5q0 230 -30 372.5t-83.5 204.5t-129.5 62
q-69 0 -115.5 -41t-75 -118t-40.5 -187.5t-12 -249.5z" />
    <glyph glyph-name="one" unicode="1" horiz-adv-x="1134" 
d="M695 261q0 -58 6.5 -87.5t23 -48t47.5 -29t78 -16t124 -7.5v-73h-739v73q111 5 158.5 13.5t72.5 25.5t36.5 48t11.5 101v811q0 40 -14 58.5t-41 18.5q-32 0 -91 -33t-146 -91l-44 77l468 279h55q-6 -96 -6 -266v-854z" />
    <glyph glyph-name="two" unicode="2" horiz-adv-x="1134" 
d="M702 160q49 0 79 6t48 20t28.5 36.5t26.5 69.5h85l-17 -292h-823v48q43 105 116 215t207 259q116 128 167 194q56 72 83.5 124.5t39.5 99t12 93.5q0 75 -24 132.5t-73.5 90.5t-124.5 33q-187 0 -252 -208h-121v192q121 57 226.5 82.5t189.5 25.5q186 0 281 -81.5
t95 -236.5q0 -53 -10.5 -97.5t-33 -88t-60.5 -93.5t-84 -101.5t-159 -171.5q-190 -201 -279 -351h377z" />
    <glyph glyph-name="three" unicode="3" horiz-adv-x="1134" 
d="M159 1082v190q116 55 217 82t195 27q113 0 198 -35t130 -100.5t45 -156.5q0 -85 -34 -149.5t-95.5 -112.5t-159.5 -94v-9q61 -11 117.5 -37.5t100.5 -68.5t70.5 -100.5t26.5 -133.5q0 -116 -50.5 -206t-154.5 -142t-253 -52q-86 0 -185.5 19.5t-182.5 51.5v212h120
q35 -104 92.5 -151t156.5 -47q130 0 196.5 71t66.5 210q0 146 -88 223t-258 77h-90v88q135 8 227.5 52t137.5 113t45 155q0 111 -59 171t-172 60q-94 0 -153 -51t-87 -156h-120z" />
    <glyph glyph-name="four" unicode="4" horiz-adv-x="1134" 
d="M516 49q62 16 83 35.5t27.5 55.5t6.5 110v164h-556v75l585 883h143v-861h21q58 0 83 8.5t41.5 30t30.5 70.5h76l-12 -206h-240v-164q0 -67 4.5 -98t15 -49t31 -30t66.5 -24v-49h-406v49zM242 511h391v249q0 94 3 210.5t7 175.5h-10l-391 -621v-14z" />
    <glyph glyph-name="five" unicode="5" horiz-adv-x="1134" 
d="M150 55v212h121q30 -102 90.5 -150t156.5 -48q133 0 201 80t68 239q0 106 -36 175.5t-97 100.5t-142 31q-68 0 -117 -8.5t-105 -26.5l-80 47v658h551q34 0 49 5.5t24 17t21 43.5h78l-15 -232h-575v-439q52 22 113 33t122 11q119 0 211 -48.5t142 -138t50 -207.5
q0 -134 -56 -230t-162 -146t-251 -50q-173 0 -362 71z" />
    <glyph glyph-name="six" unicode="6" horiz-adv-x="1134" 
d="M911 1326v-49q-154 0 -273 -66t-197.5 -194t-110.5 -304l10 -4q84 60 165.5 88t176.5 28q113 0 192.5 -49.5t119.5 -139t40 -209.5q0 -130 -50 -229.5t-154.5 -156.5t-257.5 -57q-219 0 -330.5 136t-111.5 401q0 178 56 333t159 270.5t239 182t286 74.5zM613 720
q-49 0 -94.5 -11t-85.5 -32t-78 -53q-12 -11 -18 -23q-10 -19 -13 -47t-3 -94q0 -191 64 -291t194 -100q75 0 126 26t82.5 71.5t45 107t13.5 133.5q0 148 -61 230.5t-172 82.5z" />
    <glyph glyph-name="seven" unicode="7" horiz-adv-x="1134" 
d="M1026 1317l-582 -1324h-145v49l539 1141v15h-440q-41 0 -65.5 -7.5t-41 -21.5t-27.5 -37t-30 -91h-86l20 324h858v-48z" />
    <glyph glyph-name="eight" unicode="8" horiz-adv-x="1134" 
d="M792 721l2 -13q113 -44 171 -128.5t58 -203.5q0 -117 -56 -206t-162.5 -137.5t-248.5 -48.5q-133 0 -233.5 44.5t-156 130t-55.5 201.5q0 87 30 151t78.5 105.5t122.5 75.5l-2 13q-215 93 -215 319q0 103 56.5 184t161 127t231.5 46q144 0 242 -40.5t147.5 -117
t49.5 -183.5q0 -110 -54 -189.5t-167 -129.5zM313 1033q0 -59 14 -111t45 -90t80.5 -60.5t121.5 -22.5q83 0 139.5 32.5t84 95t27.5 144.5q0 90 -32.5 152.5t-89.5 92.5t-131 30q-126 0 -192.5 -68.5t-66.5 -194.5zM302 377q0 -65 15 -121.5t47.5 -97.5t83.5 -65t124 -24
q82 0 140.5 33.5t89 99.5t30.5 156q0 96 -33 165.5t-93 106t-139 36.5q-74 0 -124.5 -23t-82 -62t-45 -91.5t-13.5 -112.5z" />
    <glyph glyph-name="nine" unicode="9" horiz-adv-x="1134" 
d="M313 39v49q140 0 242.5 62t165 183.5t83.5 318.5l-10 4q-84 -60 -165.5 -88t-176.5 -28q-113 0 -192.5 49.5t-119.5 139t-40 209.5q0 90 30 170.5t89 141t147.5 96t206.5 35.5q210 0 320 -145t110 -417q0 -249 -81 -431.5t-227 -284t-341 -119.5zM521 645q38 0 72.5 6.5
t67.5 19t64.5 32t56.5 41.5q9 8 16 21t11 34t4 66q0 137 -27.5 234.5t-84 147t-139.5 49.5q-75 0 -127 -26t-84.5 -71.5t-47.5 -107t-15 -133.5q0 -149 61 -231t172 -82z" />
    <glyph glyph-name="colon" unicode=":" horiz-adv-x="540" 
d="M370 903v-234h-200v234h200zM370 232v-232h-200v232h200z" />
    <glyph glyph-name="semicolon" unicode=";" horiz-adv-x="540" 
d="M358 232q14 -70 14 -138q0 -70 -24 -128t-76.5 -115.5t-144.5 -126.5l-54 61q51 48 74 86.5t33 87.5t10 123q0 76 -7 150h175zM370 903v-234h-200v234h200z" />
    <glyph glyph-name="less" unicode="&#x3c;" horiz-adv-x="1134" 
d="M124 515v140l886 381v-150l-738 -301l738 -301v-150z" />
    <glyph glyph-name="equal" unicode="=" horiz-adv-x="1134" 
d="M124 723v139h886v-139h-886zM124 308v139h886v-139h-886z" />
    <glyph glyph-name="greater" unicode="&#x3e;" horiz-adv-x="1134" 
d="M124 134v150l738 301l-738 301v150l886 -381v-140z" />
    <glyph glyph-name="question" unicode="?" horiz-adv-x="865" 
d="M316 416v34q0 41 5 66t17.5 53.5t39 67.5t75.5 100q58 74 83.5 120t38.5 95.5t13 110.5q0 77 -21 130.5t-59 80.5t-88 27q-79 0 -126.5 -47t-65.5 -141h-136v164q114 58 193.5 81t156.5 23q120 0 198.5 -36t114 -98t35.5 -143q0 -41 -7.5 -75.5t-22.5 -67.5t-38 -67.5
t-51.5 -69.5t-99.5 -118q-53 -62 -77 -99.5t-34 -73t-10 -92.5v-25h-134zM485 232v-232h-200v232h200z" />
    <glyph glyph-name="at" unicode="@" horiz-adv-x="1813" 
d="M1074 422l-13 1q-84 -126 -159.5 -184t-153.5 -58q-65 0 -112 33.5t-70.5 95.5t-23.5 145q0 81 19.5 164t58 158t92 131.5t125 91t154.5 34.5q59 0 107.5 -13.5t91.5 -40.5l78 54l64 -15l-111 -501q-10 -44 -14.5 -73t-4.5 -56q0 -115 96 -115q71 0 126 57.5t85 159
t30 220.5q0 187 -60.5 315.5t-180.5 194.5t-291 66q-211 0 -369.5 -94.5t-244.5 -269.5t-86 -399q0 -194 66.5 -325t193.5 -196.5t304 -65.5q86 0 157.5 12t152.5 38l24 -90q-64 -25 -153.5 -39t-185.5 -14q-250 0 -412.5 82t-239.5 236t-77 376q0 173 60 327t176 271.5
t275 181t348 63.5q182 0 316.5 -50t216 -139t118.5 -200.5t37 -243.5q0 -166 -50 -296t-141.5 -200.5t-212.5 -70.5q-42 0 -80 10.5t-66.5 33.5t-45.5 60t-17 90q0 24 3 47zM1109 721q8 36 10.5 62t2.5 52q0 64 -27 92t-89 28q-35 0 -66.5 -11.5t-64.5 -38t-62.5 -69
t-53.5 -104t-37.5 -133t-13.5 -137.5q0 -85 23 -127t76 -42q42 0 83.5 30.5t88 90.5t76 122.5t46.5 147.5z" />
    <glyph glyph-name="A" unicode="A" horiz-adv-x="1276" 
d="M796 0v49q50 10 74.5 22t36.5 33.5t12 57.5q0 34 -8 73.5t-23 88.5l-37 129h-466l-34 -98q-26 -74 -34 -112t-8 -69q0 -60 30.5 -88t93.5 -37v-49h-427v49q56 9 97.5 65t80.5 160l417 1107h158l340 -1115q24 -78 42.5 -119t44.5 -64t71 -34v-49h-461zM412 540h418
l-190 645z" />
    <glyph glyph-name="B" unicode="B" horiz-adv-x="1252" 
d="M121 0v49q62 16 83 35.5t27.5 55.5t6.5 110v865q0 69 -5 100.5t-16.5 49t-30.5 28t-65 23.5v49h547q159 0 255.5 -34t143.5 -100.5t47 -171.5q0 -87 -33.5 -151t-87.5 -106t-139 -78v-9q136 -41 206 -126.5t70 -203.5q0 -136 -60.5 -222t-169.5 -124.5t-264 -38.5h-515z
M600 753q152 0 232.5 73.5t80.5 213.5q0 69 -22.5 114.5t-62 72.5t-93.5 38.5t-117 11.5q-38 0 -100 -2t-93 -4v-518h175zM425 95q73 -7 163 -7q131 0 203.5 33t105 97.5t32.5 161.5t-35.5 160t-109.5 94t-204 31h-155v-570z" />
    <glyph glyph-name="C" unicode="C" horiz-adv-x="1152" 
d="M1042 1336v-277h-99q-24 87 -61 138.5t-86 73.5t-118 22q-103 0 -183.5 -68.5t-126.5 -206t-46 -332.5q0 -196 38 -334.5t112 -209t182 -70.5q82 0 134 23.5t87.5 74.5t67.5 150h99v-286q-94 -25 -192.5 -37.5t-216.5 -12.5q-254 0 -384 172t-130 513q0 214 67.5 375
t198.5 249t313 88q91 0 168 -9.5t176 -35.5z" />
    <glyph glyph-name="D" unicode="D" horiz-adv-x="1355" 
d="M120 0v49q46 12 66 23t31 28t16 49t5 101v865q0 70 -5 101.5t-16.5 48.5t-30.5 27.5t-66 23.5v49h438q189 0 309.5 -41.5t203.5 -122.5t124 -201.5t41 -287.5q0 -169 -38.5 -297.5t-112.5 -215.5q-64 -76 -157 -125q-77 -40 -178 -57t-268 -17h-362zM425 93q40 -4 118 -4
q84 0 150 14t120 44t97 83.5t70 123t39.5 154.5t12.5 186q0 203 -58.5 333.5t-165 190.5t-254.5 60q-68 0 -129 -4v-1181z" />
    <glyph glyph-name="E" unicode="E" horiz-adv-x="1178" 
d="M1056 1365v-302h-98q-15 49 -31 86t-33 62t-37.5 40t-48.5 20.5t-67 5.5h-316v-524h214q44 0 69 12.5t41.5 42.5t31.5 94h94v-384h-94q-14 60 -31 90.5t-40.5 43.5t-70.5 13h-214v-577h311q49 0 79.5 8.5t52.5 29t39 53.5t28.5 68.5t31.5 103.5h99l-19 -351h-926v49
q62 16 83 35.5t27.5 55.5t6.5 110v865q0 69 -5 100.5t-16.5 49t-30.5 28t-65 23.5v49h935z" />
    <glyph glyph-name="F" unicode="F" horiz-adv-x="1099" 
d="M1033 1365v-302h-98q-22 68 -42.5 110t-43 64t-52.5 31t-79 9h-293v-544h206q44 0 69 14.5t41.5 48.5t31.5 105h94v-422h-94q-15 68 -32 102.5t-40.5 49t-69.5 14.5h-206v-392q0 -60 7 -96t23 -57t43 -31.5t67 -19.5v-49h-444v49q62 16 83 35.5t27.5 55.5t6.5 110v865
q0 69 -5 100.5t-16.5 49t-30.5 28t-65 23.5v49h912z" />
    <glyph glyph-name="G" unicode="G" horiz-adv-x="1251" 
d="M1078 5l-78 -21l-73 78q-65 -40 -136 -59t-163 -19q-253 0 -381 173.5t-128 515.5q0 213 70 374t201 247.5t308 86.5q93 0 179 -10.5t191 -36.5v-275h-99q-27 90 -64 140.5t-88.5 72t-130.5 21.5q-109 0 -191 -70t-127.5 -206.5t-45.5 -329.5q0 -196 38.5 -335
t114.5 -209.5t187 -70.5q118 0 175 51.5t57 158.5v60q0 90 -9.5 130t-33.5 62t-79 36v49h404v-49q-36 -12 -54 -27.5t-27.5 -38.5t-13 -56.5t-3.5 -95.5v-347z" />
    <glyph glyph-name="H" unicode="H" horiz-adv-x="1406" 
d="M1168 250q0 -58 3 -87t10 -46.5t17 -28.5t28.5 -20t57.5 -19v-49h-419v49q55 14 77 31t30.5 52t8.5 118v419h-556v-419q0 -67 4.5 -98t15 -49t31 -30t66.5 -24v-49h-421v49q62 16 83 35.5t27.5 55.5t6.5 110v865q0 69 -5 100.5t-16.5 49t-30.5 28t-65 23.5v49h421v-49
q-44 -11 -63.5 -22t-31 -27.5t-17 -49.5t-5.5 -102v-354h556v354q0 87 -8.5 119t-28.5 49t-79 33v49h419v-49q-56 -14 -78 -31.5t-30 -52.5t-8 -117v-865z" />
    <glyph glyph-name="I" unicode="I" horiz-adv-x="664" 
d="M426 250q0 -67 4.5 -98t15 -49t31 -30t66.5 -24v-49h-422v49q62 16 83 35.5t27.5 55.5t6.5 110v865q0 69 -5 100.5t-16.5 49t-30.5 28t-65 23.5v49h422v-49q-44 -11 -63.5 -22t-31 -27.5t-17 -49.5t-5.5 -102v-865z" />
    <glyph glyph-name="J" unicode="J" horiz-adv-x="628" 
d="M408 68q0 -135 -31.5 -219t-106 -142t-208.5 -99l-33 88q88 34 125 68.5t51.5 86.5t14.5 140v1124q0 87 -8.5 119t-28 49t-80.5 33v49h422v-49q-44 -11 -63.5 -22t-31 -27.5t-17 -49.5t-5.5 -102v-1047z" />
    <glyph glyph-name="K" unicode="K" horiz-adv-x="1289" 
d="M424 748h30q38 0 69.5 12t70.5 45t119 123q96 107 131 155q44 57 59 96q12 29 12 56q0 40 -23 58.5t-63 22.5v49h436v-49q-32 -7 -63 -24.5t-63.5 -48t-95.5 -100.5l-336 -378l364 -529q58 -84 91 -117.5t63 -49t64 -20.5v-49h-441v49q37 3 54 14t17 33q0 18 -11.5 43.5
t-36.5 61.5l-233 347q-41 62 -60 82t-41 29.5t-59 9.5h-53v-419q0 -67 4.5 -98t15 -49t31 -30t66.5 -24v-49h-421v49q62 16 83 35.5t27.5 55.5t6.5 110v865q0 69 -5 100.5t-16.5 49t-30.5 28t-65 23.5v49h421v-49q-44 -11 -63.5 -22t-31 -27.5t-17 -49.5t-5.5 -102z" />
    <glyph glyph-name="L" unicode="L" horiz-adv-x="1099" 
d="M425 92h262q43 0 72 5t49.5 15.5t37 29t31.5 48.5t28.5 75.5t33.5 136.5h101l-20 -402h-899v49q62 16 83 35.5t27.5 55.5t6.5 110v865q0 69 -5 100.5t-16.5 49t-30.5 28t-65 23.5v49h421v-49q-44 -12 -62.5 -21.5t-30.5 -25.5t-18 -49t-6 -105v-1023z" />
    <glyph glyph-name="M" unicode="M" horiz-adv-x="1670" 
d="M1549 1316q-44 -11 -63.5 -22t-31 -27.5t-17 -49.5t-5.5 -102v-865q0 -67 4.5 -98t15 -49t31 -30t66.5 -24v-49h-417v49q57 14 79 32t30 53t8 116v383q0 151 4.5 305.5t10.5 211.5h-17l-396 -991h-115l-368 1007h-17q5 -61 9.5 -221t4.5 -329v-366q0 -67 4.5 -98t15 -49
t31 -30t66.5 -24v-49h-365v49q62 16 83 35.5t27.5 55.5t6.5 110v865q0 69 -5 100.5t-16.5 49t-30.5 28t-65 23.5v49h357l351 -973l386 973h338v-49z" />
    <glyph glyph-name="N" unicode="N" horiz-adv-x="1394" 
d="M924 541q36 -60 60.5 -105t50.5 -101h13q-5 61 -9 242.5t-4 327.5v210q0 69 -4 101t-14.5 49t-29 27.5t-64.5 23.5v49h360v-49q-45 -12 -63.5 -22t-30 -26t-17.5 -48t-6 -105v-1121h-125l-557 934q-52 87 -74 127t-41 79h-17q7 -77 10 -278.5t3 -401.5v-204
q0 -67 4.5 -98t15 -49t31 -30t66.5 -24v-49h-365v49q62 16 83 35.5t27.5 55.5t6.5 110v865q0 69 -5 100.5t-16.5 49t-30.5 28t-65 23.5v49h313z" />
    <glyph glyph-name="O" unicode="O" horiz-adv-x="1338" 
d="M654 -16q-120 0 -218.5 39.5t-169 123t-109 213.5t-38.5 311q0 223 68 383t194.5 243.5t293.5 83.5q178 0 299.5 -78.5t183 -231t61.5 -371.5q0 -234 -70 -395t-197.5 -241t-297.5 -80zM325 699q0 -307 89.5 -467t261.5 -160q109 0 185 69.5t114 203.5t38 313
q0 218 -44.5 361.5t-121.5 208.5t-179 65q-90 0 -154.5 -42t-107 -119.5t-62 -187.5t-19.5 -245z" />
    <glyph glyph-name="P" unicode="P" horiz-adv-x="1163" 
d="M425 253q0 -59 6.5 -94t20 -55.5t36.5 -32t72 -22.5v-49h-439v49q62 16 83 35.5t27.5 55.5t6.5 110v865q0 69 -5 100.5t-16.5 49t-30.5 28t-65 23.5v49h496q234 0 348.5 -89.5t114.5 -272.5q0 -104 -36 -187t-102 -136t-156 -76t-189 -23q-111 0 -172 4v-332zM425 668
h116q113 0 186.5 29.5t112.5 98t39 181.5q0 86 -23 143.5t-63.5 92.5t-96.5 49.5t-122 14.5q-99 0 -149 -4v-605z" />
    <glyph glyph-name="Q" unicode="Q" horiz-adv-x="1338" 
d="M832 9l35 -51q27 -39 51 -70.5t51.5 -60t52 -46t46.5 -25t42 -7.5q55 0 95 20.5t77 56.5l48 -62q-78 -78 -145 -112t-138 -34q-57 0 -94 11t-73.5 36t-81.5 76t-104 139l-71 105q-249 12 -376.5 187t-127.5 499q0 223 68 383t194.5 243.5t293.5 83.5q178 0 299.5 -78.5
t183 -231t61.5 -371.5q0 -278 -99 -455.5t-288 -235.5zM325 699q0 -307 89.5 -467t261.5 -160q109 0 185 69.5t114 203.5t38 313q0 218 -44.5 361.5t-121.5 208.5t-179 65q-90 0 -154.5 -42t-107 -119.5t-62 -187.5t-19.5 -245z" />
    <glyph glyph-name="R" unicode="R" horiz-adv-x="1272" 
d="M426 593v-340q0 -72 5.5 -104.5t16.5 -49t30 -27t65 -23.5v-49h-422v49q62 16 83 35.5t27.5 55.5t6.5 110v865q0 69 -5 100.5t-16.5 49t-30.5 28t-65 23.5v49h495q234 0 350 -85t116 -264q0 -137 -75.5 -233t-226.5 -150v-8q61 -25 104.5 -71.5t96.5 -144.5l90 -164
q39 -72 67 -110t57 -58t77 -28v-49h-277q-38 53 -72 114t-67 124l-88 167q-40 76 -65.5 112t-47 50.5t-46 20t-73.5 5.5h-110zM426 1273v-594h113q87 0 141 12.5t100 47.5t73.5 97.5t27.5 153.5q0 95 -32.5 158t-98.5 96t-178 33q-90 0 -146 -4z" />
    <glyph glyph-name="S" unicode="S" horiz-adv-x="1016" 
d="M212 311q20 -88 54 -139t88 -75.5t139 -24.5q117 0 179.5 61t62.5 178q0 75 -26 126t-85 96t-180 105q-117 58 -185 113.5t-101.5 120.5t-33.5 142q0 112 52.5 194.5t154 127.5t232.5 45q76 0 148.5 -8t181.5 -36v-270h-99q-23 88 -58 137t-82 68.5t-122 19.5
q-65 0 -116.5 -24t-81.5 -72.5t-30 -115.5q0 -71 25.5 -120t79.5 -91t160 -94q128 -64 198.5 -119t110 -125.5t39.5 -164.5q0 -105 -33 -177.5t-91.5 -118t-140 -66t-178.5 -20.5q-157 0 -362 53v274h100z" />
    <glyph glyph-name="T" unicode="T" horiz-adv-x="1214" 
d="M66 1365h1082v-348h-98q-22 86 -43.5 136t-45.5 76t-51.5 37t-82.5 11h-127v-1024q0 -59 6.5 -94t20 -55.5t36.5 -32t72 -22.5v-49h-457v49q30 7 53 15t37.5 19.5t24 29.5t15 49t5.5 91v1024h-126q-47 0 -77.5 -9t-56.5 -37.5t-47.5 -81t-40.5 -132.5h-99v348z" />
    <glyph glyph-name="U" unicode="U" horiz-adv-x="1327" 
d="M1125 472q0 -109 -20 -188q-19 -75 -57 -133q-35 -52 -87 -88.5t-126 -57.5t-174 -21q-121 0 -207.5 27t-143 88.5t-81.5 145t-25 212.5v658q0 78 -5 105.5t-14.5 43.5t-27.5 27.5t-67 24.5v49h420v-49q-56 -14 -78 -31.5t-30 -52.5t-8 -117v-708q0 -97 20.5 -163
t57.5 -102.5t88 -53t127 -16.5q70 0 123 24.5t88.5 74.5t48.5 123t13 196v625q0 87 -8.5 119t-28 49t-80.5 33v49h399v-49q-58 -15 -79.5 -33t-29.5 -52t-8 -116v-643z" />
    <glyph glyph-name="V" unicode="V" horiz-adv-x="1236" 
d="M474 1365v-49q-46 -8 -70 -20t-36 -34t-12 -59q0 -34 8 -73.5t23 -88.5l234 -816l287 822q6 19 12 40t10.5 41t6 35t1.5 28q0 60 -27.5 87.5t-93.5 37.5v49h420v-49q-41 -10 -66 -29t-49.5 -61t-59.5 -134l-415 -1108h-131l-337 1115q-27 91 -47 129.5t-44 58t-66 29.5
v49h452z" />
    <glyph glyph-name="W" unicode="W" horiz-adv-x="1887" 
d="M941 1110l-320 -1117h-162l-291 1086q-18 68 -33 111t-30 67.5t-32.5 37t-50.5 21.5v49h428v-49q-62 -12 -86.5 -36t-24.5 -67q0 -35 9 -83t25 -109l201 -790l322 1134h168l261 -1135l236 763q43 139 43 198q0 61 -25.5 88t-84.5 37v49h394v-49q-30 -10 -48 -22.5
t-34.5 -34t-36 -66.5t-45.5 -121l-364 -1079h-143z" />
    <glyph glyph-name="X" unicode="X" horiz-adv-x="1170" 
d="M481 1365v-49q-48 -7 -69 -26t-21 -52q0 -28 19 -70t54 -100l145 -243l143 231q32 52 48 83t22.5 52t6.5 43q0 31 -18 52.5t-60 29.5v49h371v-49q-37 -12 -66.5 -35t-63 -67t-95.5 -139l-226 -350l254 -418q54 -89 77.5 -124.5t44 -60t44 -42.5t58.5 -31v-49h-439v49
q46 8 68 25.5t22 52.5q0 28 -14.5 62t-44.5 84l-181 302l-191 -313q-48 -79 -48 -130q0 -33 18 -54t60 -29v-49h-378v49q37 11 61 26.5t46 39.5t49 61t86 129l236 368l-282 464q-40 64 -60.5 93t-38 47t-31.5 25.5t-32 13.5v49h426z" />
    <glyph glyph-name="Y" unicode="Y" horiz-adv-x="1168" 
d="M482 573l-276 513q-50 93 -76 133t-52 63t-60 34v49h426v-49q-94 -11 -94 -81q0 -29 13.5 -65t48.5 -102l200 -381l197 348q40 71 56.5 116.5t16.5 83.5q0 36 -21.5 56.5t-63.5 24.5v49h379v-49q-41 -15 -72 -41.5t-63 -71.5t-94 -152l-278 -474v-324q0 -57 6 -92t20 -56
t37 -33t72 -23v-49h-457v49q48 10 71 21.5t37 33t20.5 56.5t6.5 93v320z" />
    <glyph glyph-name="Z" unicode="Z" horiz-adv-x="1101" 
d="M327 92h361q67 0 99.5 12.5t53.5 39t38 74.5t41 149h98v-367h-924v49l685 1224h-363q-39 0 -61.5 -6.5t-40.5 -20t-35.5 -39.5t-35 -71.5t-36.5 -113.5h-98v343h902v-48z" />
    <glyph glyph-name="bracketleft" unicode="[" horiz-adv-x="717" 
d="M674 -430h-446v1861h446v-82h-270v-1697h270v-82z" />
    <glyph glyph-name="backslash" unicode="\" horiz-adv-x="1004" 
d="M218 1431l724 -1861h-156l-723 1861h155z" />
    <glyph glyph-name="bracketright" unicode="]" horiz-adv-x="717" 
d="M489 -430h-446v82h270v1697h-270v82h446v-1861z" />
    <glyph glyph-name="asciicircum" unicode="^" horiz-adv-x="1134" 
d="M825 675l-258 569l-258 -569h-152l338 706h144l338 -706h-152z" />
    <glyph glyph-name="underscore" unicode="_" horiz-adv-x="759" 
d="M0 -241v116h759v-116h-759z" />
    <glyph glyph-name="grave" unicode="`" horiz-adv-x="583" 
d="M238 1442l207 -320l-66 -52l-316 322v50h175z" />
    <glyph glyph-name="a" unicode="a" horiz-adv-x="1000" 
d="M675 143l-15 4q-87 -89 -163.5 -126t-162.5 -37q-76 0 -134 29.5t-89 83t-31 123.5q0 146 144.5 225.5t433.5 92.5v65q0 104 -20 164t-63 88t-115 28q-78 0 -125.5 -41t-71.5 -123h-131v130q96 50 160 73.5t128 37t130 13.5q99 0 159 -31.5t90 -96.5t30 -196v-348
q0 -74 1 -104.5t6 -56.5t15 -41.5t29.5 -26.5t63.5 -23v-49h-274zM658 456q-203 -2 -304 -54t-101 -157q0 -57 23 -90t58 -45.5t83 -12.5q68 0 123.5 33t86.5 84t31 101v141z" />
    <glyph glyph-name="b" unicode="b" horiz-adv-x="1121" 
d="M349 799l4 -1q70 73 116.5 106t96 50.5t108.5 17.5q107 0 183.5 -54.5t118 -163.5t41.5 -267q0 -163 -49.5 -275.5t-146 -170t-228.5 -57.5q-74 0 -139.5 13.5t-137.5 47.5l-70 -61l-69 16v1087q0 96 -1.5 134t-8 64.5t-18 41.5t-31 24t-70.5 18v52l242 10h59v-632z
M349 360q0 -77 7 -122.5t23.5 -75.5t48 -55t70.5 -34.5t87 -9.5q120 0 182 98t62 294q0 198 -56.5 297.5t-170.5 99.5q-57 0 -97 -17.5t-79.5 -54.5t-58 -73t-18.5 -82v-265z" />
    <glyph glyph-name="c" unicode="c" horiz-adv-x="903" 
d="M842 933v-209h-127q-17 65 -42 102.5t-58 52.5t-82 15q-70 0 -124 -45t-85.5 -137t-31.5 -225q0 -85 12 -155.5t41 -120.5t77 -78t119 -28q69 0 128.5 27t123.5 95l57 -66q-51 -56 -90 -86.5t-83.5 -51t-88 -30t-94.5 -9.5q-189 0 -289 125.5t-100 362.5q0 148 56 262.5
t157 176.5t233 62q82 0 151.5 -9.5t139.5 -30.5z" />
    <glyph glyph-name="d" unicode="d" horiz-adv-x="1136" 
d="M772 1087q0 96 -1.5 134t-8 64.5t-18 41.5t-31 24t-70.5 18v52l242 10h59v-1158q0 -78 3 -111.5t13 -53.5t31.5 -32.5t75.5 -23.5v-52l-236 -10h-60l12 164l-15 4q-63 -67 -109.5 -100.5t-99 -53.5t-112.5 -20q-164 0 -253 124.5t-89 359.5q0 164 58 278.5t156.5 170.5
t221.5 56q66 0 120 -10.5t111 -34.5v159zM772 593q0 78 -7 125t-23.5 79t-44.5 54t-61.5 32t-80.5 10q-128 0 -195 -102.5t-67 -294.5t55 -292t167 -100q44 0 73 7.5t57 24t57 45.5t42.5 53t20.5 55t7 80v224z" />
    <glyph glyph-name="e" unicode="e" horiz-adv-x="999" 
d="M896 170q-64 -67 -117.5 -105t-117.5 -59.5t-141 -21.5q-206 0 -311 123.5t-105 364.5q0 149 53.5 263t152.5 176t228 62q101 0 172 -32t113.5 -87.5t66 -140t26.5 -220.5h-630v-18q0 -118 26.5 -198.5t87 -126t157.5 -45.5q82 0 147.5 30.5t130.5 99.5zM728 576
q-6 108 -27 176.5t-63 105t-110 36.5q-103 0 -164.5 -82.5t-72.5 -235.5h437z" />
    <glyph glyph-name="f" unicode="f" horiz-adv-x="620" 
d="M611 855h-239v-605q0 -67 6.5 -101t19 -51.5t33 -28t65.5 -20.5v-49h-409v49q44 12 63 23t29.5 28t15.5 49t5 101v605h-121v51q38 6 50.5 9.5t24 10.5t20 20t15 38.5t10.5 71.5q9 109 39.5 177t89 116t125 67.5t156.5 19.5q79 0 134 -11v-181h-99q-19 59 -44.5 83.5
t-71.5 24.5q-33 0 -55.5 -9t-41.5 -28t-32.5 -51t-20 -79.5t-6.5 -123.5v-105h239v-101z" />
    <glyph glyph-name="g" unicode="g" horiz-adv-x="1012" 
d="M994 855l-185 7l-9 -11q31 -31 49 -84.5t18 -115.5q0 -163 -100.5 -251.5t-285.5 -88.5q-83 0 -143 21q-76 -58 -76 -114q0 -37 14.5 -56t48 -27t101.5 -8h240q106 0 173 -33t95.5 -88.5t28.5 -129.5q0 -94 -54 -167.5t-156 -114.5t-238 -41q-101 0 -184.5 12t-143 40.5
t-92 75t-32.5 116.5q0 63 42 114.5t119 90.5q-47 19 -74 56t-27 87q0 57 32 104.5t113 108.5q-72 42 -109.5 114t-37.5 164q0 86 28.5 149.5t79 105t119.5 62t149 20.5q72 0 143 -17h354v-101zM300 652q0 -125 51 -193t147 -68q51 0 87 19.5t58.5 53.5t33 78.5t10.5 93.5
q0 88 -25 147t-68 86.5t-99 27.5q-95 0 -145 -63t-50 -182zM325 -16q-51 -38 -76.5 -80.5t-25.5 -96.5q0 -90 71.5 -132.5t218.5 -42.5q90 0 154.5 24t98.5 69t34 105q0 28 -7 54.5t-26.5 47.5t-55.5 33.5t-94 12.5h-149q-81 0 -143 6z" />
    <glyph glyph-name="h" unicode="h" horiz-adv-x="1130" 
d="M365 799l4 -1q78 79 123.5 110.5t90 47.5t95.5 16q55 0 98 -13t75.5 -39.5t53 -65t30.5 -92t10 -135.5v-377q0 -87 7.5 -118.5t27 -49t78.5 -33.5v-49h-394v49q39 12 56 21t28.5 25t18 49.5t6.5 101.5v262q0 133 -13.5 203.5t-53 105.5t-110.5 35q-40 0 -72 -14t-74 -50
t-63.5 -74t-21.5 -81v-383q0 -68 3.5 -97t13.5 -48.5t30.5 -32t63.5 -23.5v-49h-396v49q44 12 63 23t29.5 28t15.5 49t5 101v837q0 96 -1.5 134t-8 64.5t-18 41.5t-31 24t-70.5 18v52l241 10h60v-632z" />
    <glyph glyph-name="i" unicode="i" horiz-adv-x="569" 
d="M383 1348v-194h-184v194h184zM97 49q39 12 55.5 21t28 25t18 49t6.5 103v436q0 64 -2 103t-14 62.5t-36.5 35t-69.5 19.5v53l233 9h61v-715q0 -86 8 -119.5t30.5 -51t73.5 -30.5v-49h-392v49z" />
    <glyph glyph-name="j" unicode="j" horiz-adv-x="545" 
d="M373 1348v-194h-183v194h183zM368 19q0 -140 -29 -224t-100.5 -142.5t-199.5 -95.5l-34 88q62 24 94.5 45.5t53.5 50t32 76.5t11 123v743q0 78 -3 112t-13 53.5t-31 31.5t-76 23v53l234 9h61v-946z" />
    <glyph glyph-name="k" unicode="k" horiz-adv-x="1074" 
d="M364 557h32q33 0 54 7q25 9 55 30.5t85 72.5q46 43 69.5 73t32.5 55q8 21 8 42q0 30 -18.5 47t-60.5 23v49h431v-49q-46 -9 -98 -41t-107 -84l-230 -218l288 -376q50 -66 90.5 -97.5t88.5 -41.5v-49h-384v49q26 3 38.5 11.5t12.5 28.5q0 15 -5.5 29.5t-22.5 39.5t-62 87
l-119 160q-34 45 -48.5 59t-30.5 20t-43 6h-56v-240q0 -86 8 -119.5t30.5 -51t73.5 -30.5v-49h-397v49q50 13 69.5 27t28 33.5t12 53t3.5 87.5v837q0 96 -1.5 134t-8 64.5t-18 41.5t-31 24t-70.5 18v52l241 10h60v-874z" />
    <glyph glyph-name="l" unicode="l" horiz-adv-x="556" 
d="M364 250q0 -86 8 -119.5t30.5 -51t73.5 -30.5v-49h-397v49q50 13 69.5 27t28 33.5t12 53t3.5 87.5v837q0 96 -1.5 134t-8 64.5t-18 41.5t-31 24t-70.5 18v52l241 10h60v-1181z" />
    <glyph glyph-name="m" unicode="m" horiz-adv-x="1704" 
d="M367 802l14 -4q60 60 98.5 90.5t74.5 49t67.5 26.5t64.5 8q100 0 163 -46t87 -141q75 76 121.5 112t95 55.5t104.5 19.5q67 0 115.5 -19.5t82 -60t49 -101.5t15.5 -164v-377q0 -76 5 -105t14.5 -45t28.5 -27.5t64 -23.5v-49h-393v49q39 12 56 21t28.5 25t18 49.5
t6.5 101.5v262q0 85 -4.5 140.5t-14 88.5t-23 52t-30.5 33t-40 22t-61 8q-40 0 -74.5 -16t-75 -54t-58.5 -76.5t-18 -90.5v-365q0 -76 5 -105t14.5 -45t28.5 -27.5t64 -23.5v-49h-393v49q39 12 56 21t28.5 25t18 49.5t6.5 101.5v262q0 89 -5 145t-15.5 90t-27 55t-33.5 32
t-40 16.5t-52 5.5q-41 0 -77 -18.5t-73.5 -53.5t-56.5 -73t-19 -82v-375q0 -57 3 -87t9.5 -47t16.5 -27.5t28.5 -20t55.5 -19.5v-49h-392v49q38 12 54.5 21t28.5 25t18 49t6 103v436q0 64 -2 103t-14 62.5t-36.5 35t-69.5 19.5v53l234 9h61z" />
    <glyph glyph-name="n" unicode="n" horiz-adv-x="1143" 
d="M1071 0h-394v49q39 12 56 21t28.5 25t18 49.5t6.5 101.5v262q0 70 -4 127t-13.5 93.5t-23 57t-32 35t-42.5 23t-63 8.5t-74 -15.5t-77 -53.5t-61 -75t-19 -85v-373q0 -86 8 -119.5t30.5 -51t73.5 -30.5v-49h-392v49q39 12 55.5 21t28 25t18 49t6.5 103v436q0 64 -2 103
t-14 62.5t-36.5 35t-69.5 19.5v53l234 9h61l-11 -163l14 -4q74 75 119.5 107t92 49.5t98.5 17.5q54 0 96.5 -12.5t75 -38.5t53.5 -64.5t31.5 -92.5t10.5 -137v-377q0 -69 4 -100t14 -48t29 -28.5t66 -24.5v-49z" />
    <glyph glyph-name="o" unicode="o" horiz-adv-x="1087" 
d="M532 -16q-208 0 -317.5 122.5t-109.5 362.5q0 165 57.5 279t157.5 169.5t228 55.5q214 0 324 -124.5t110 -357.5q0 -166 -55 -280t-156 -170.5t-239 -56.5zM294 490q0 -206 65.5 -316.5t187.5 -110.5q67 0 114 32.5t76.5 87.5t42.5 127.5t13 151.5q0 147 -32.5 244
t-88.5 142.5t-128 45.5q-121 0 -185.5 -105t-64.5 -299z" />
    <glyph glyph-name="p" unicode="p" horiz-adv-x="1139" 
d="M368 30v-211q0 -65 4.5 -97t16 -50.5t33 -30.5t69.5 -22v-49h-408v49q36 10 58.5 20.5t34.5 31t16 55.5t4 93v858q0 72 -2 102.5t-8 50.5t-17.5 33t-31 22t-64.5 18v53l235 9h61l-13 -163l15 -4q62 63 98 91.5t74.5 47.5t74 27t75.5 8q165 0 253.5 -123.5t88.5 -361.5
q0 -165 -50 -277.5t-145.5 -169t-227.5 -56.5q-74 0 -134 12.5t-110 33.5zM368 360q0 -96 12 -148t42.5 -84.5t72 -48.5t109.5 -16q121 0 182 100.5t61 296.5q0 392 -229 392q-56 0 -96.5 -17.5t-80.5 -56.5t-56.5 -75.5t-16.5 -78.5v-264z" />
    <glyph glyph-name="q" unicode="q" horiz-adv-x="1120" 
d="M1056 -430h-408v49q48 10 69.5 22t33 30.5t16 50t4.5 97.5v345q-54 -61 -100.5 -97.5t-103.5 -59.5t-121 -23q-165 0 -253.5 123t-88.5 358q0 166 57.5 280.5t160.5 171t238 56.5q71 0 128 -14.5t117 -46.5l70 61l68 -16v-1138q0 -59 4.5 -93.5t16 -54.5t34 -31t58.5 -21
v-49zM771 596q0 93 -12 144t-41 86.5t-68 51t-92 15.5q-129 0 -197.5 -104t-68.5 -293q0 -192 55.5 -292t166.5 -100q42 0 71.5 7.5t58 24.5t58 46t42.5 52.5t20 54.5t7 80v227z" />
    <glyph glyph-name="r" unicode="r" horiz-adv-x="847" 
d="M367 790l14 -3q55 67 102 105.5t101.5 59.5t123.5 21q58 0 105 -6v-230h-113q-24 54 -51 78.5t-74 24.5q-36 0 -71.5 -21t-68.5 -61t-45.5 -75t-12.5 -83v-350q0 -91 11 -125.5t36.5 -50.5t76.5 -25v-49h-403v49q38 12 54.5 21t28.5 25t18 49t6 103v436q0 64 -2 103
t-14 62.5t-36.5 35t-69.5 19.5v52l234 10h61z" />
    <glyph glyph-name="s" unicode="s" horiz-adv-x="880" 
d="M767 737h-96q-22 60 -52 94.5t-68 48.5t-93 14q-80 0 -127.5 -37.5t-47.5 -102.5q0 -46 19 -76t59 -56t141 -69q102 -44 157.5 -81t87 -86t31.5 -117q0 -79 -27 -133t-76 -88t-116.5 -49t-147.5 -15q-84 0 -163 12.5t-154 32.5v209h98q27 -92 80 -133.5t146 -41.5
q36 0 70.5 7.5t61.5 25t43 47.5t16 75q0 51 -20 83t-62 58.5t-148 71.5q-91 38 -146 74t-86.5 85t-31.5 116q0 82 44.5 142.5t128.5 92.5t197 32q66 0 127.5 -6.5t154.5 -25.5v-204z" />
    <glyph glyph-name="t" unicode="t" horiz-adv-x="693" 
d="M37 906q50 8 81 28t48.5 51.5t27.5 79t21 138.5h142v-247h323v-101h-323v-445q0 -97 8 -154.5t30 -90t50 -46.5t72 -14q40 0 75 16.5t69 47.5l45 -54q-71 -69 -134.5 -100t-131.5 -31q-129 0 -192 76.5t-63 239.5v555h-148v51z" />
    <glyph glyph-name="u" unicode="u" horiz-adv-x="1131" 
d="M73 956h285v-509q0 -117 9 -178t27 -92t51 -52t91 -21q38 0 73 15t78 52.5t61.5 74.5t18.5 86v375q0 57 -3 86t-10 46.5t-16.5 28.5t-27 20t-56.5 19v49h285v-683q0 -77 3 -111t13 -54t31 -32.5t75 -23.5v-52l-229 -10h-61l6 164l-15 4q-83 -90 -158.5 -132t-151.5 -42
q-91 0 -150 36t-88 107.5t-29 201.5v378q0 84 -6.5 115.5t-25 50t-80.5 34.5v49z" />
    <glyph glyph-name="v" unicode="v" horiz-adv-x="1032" 
d="M427 956v-49q-46 -11 -65 -21t-28.5 -26t-9.5 -43t6.5 -56.5t20.5 -68.5l174 -506l204 485q20 48 28 79t8 58q0 42 -22.5 64t-82.5 35v49h374v-49q-39 -8 -60 -24.5t-42 -52t-50 -99.5l-337 -741h-118l-271 747q-28 77 -44.5 105.5t-36 42.5t-56.5 22v49h408z" />
    <glyph glyph-name="w" unicode="w" horiz-adv-x="1586" 
d="M798 747l-262 -752h-139l-240 742q-23 72 -38.5 101.5t-33 44t-56.5 24.5v49h395v-49q-58 -12 -78.5 -31.5t-20.5 -58.5q0 -27 6 -56.5t18 -68.5l157 -510l257 774h141l218 -774l176 489q14 38 23 72.5t9 64.5q0 42 -22.5 65t-76.5 34v49h349v-49q-28 -7 -42 -14.5
t-27.5 -22t-30 -45t-41.5 -94.5l-289 -736h-135z" />
    <glyph glyph-name="x" unicode="x" horiz-adv-x="990" 
d="M520 577l130 165q21 27 34 52.5t13 52.5q0 23 -17 38t-53 22v49h327v-49q-38 -11 -77.5 -43t-96.5 -103l-207 -254l228 -307q49 -66 88 -101t78 -50v-49h-402v49q83 10 83 62q0 21 -7 40t-26 44l-145 202l-154 -200q-17 -22 -26.5 -40.5t-9.5 -41.5q0 -27 18.5 -44.5
t58.5 -21.5v-49h-334v49q33 12 59.5 30t54 46.5t72.5 83.5l208 258l-213 292q-44 60 -70 87t-48 41t-44 20v49h392v-49q-79 -12 -79 -62q0 -23 10.5 -46t32.5 -51z" />
    <glyph glyph-name="y" unicode="y" horiz-adv-x="1032" 
d="M520 -82q-55 -124 -107 -201t-114.5 -116t-148.5 -39q-55 0 -124 13v198h89q12 -41 30 -57t52 -16q30 0 53.5 11.5t49 39.5t60 86t77.5 147l-280 753q-27 73 -43.5 102t-35.5 44t-58 24v49h407v-49q-47 -11 -66 -21.5t-28 -27t-9 -42.5q0 -27 6.5 -56t20.5 -68l178 -501
l200 480q17 40 26.5 73.5t9.5 62.5q0 43 -23.5 65t-81.5 35v49h374v-49q-39 -8 -60 -24.5t-42 -52t-50 -99.5z" />
    <glyph glyph-name="z" unicode="z" horiz-adv-x="931" 
d="M851 290v-290h-770v49l548 826h-271q-50 0 -79 -18t-55 -60t-50 -113h-87v272h758v-50l-547 -825h263q52 0 78 8t45 25.5t37 55.5t43 120h87z" />
    <glyph glyph-name="braceleft" unicode="{" horiz-adv-x="793" 
d="M724 -432q-155 0 -245 40t-129 119.5t-39 213.5v289q0 89 -22.5 138.5t-67.5 69.5t-126 20v82q80 0 125 20t68 69t23 139v289q0 134 39 213.5t129 119.5t245 40h26v-81q-79 0 -118.5 -8.5t-64 -25.5t-40.5 -44t-25 -75t-9 -127v-194q0 -101 -17.5 -168.5t-62.5 -117
t-123 -81.5v-18q76 -31 122.5 -82t63.5 -119.5t17 -165.5v-194q0 -79 9 -127t25 -75t40.5 -44t64 -25.5t118.5 -8.5v-81h-26z" />
    <glyph glyph-name="bar" unicode="|" horiz-adv-x="648" 
d="M401 -430h-154v1861h154v-1861z" />
    <glyph glyph-name="braceright" unicode="}" horiz-adv-x="793" 
d="M69 1430q155 0 245 -40t129 -119.5t39 -213.5v-289q0 -90 23 -139t68 -69t125 -20v-82q-81 0 -126 -20t-67.5 -69.5t-22.5 -138.5v-289q0 -134 -39 -213.5t-129 -119.5t-245 -40h-26v81q79 0 118.5 8.5t64 25.5t40.5 44t25 75t9 127v194q0 101 17.5 168.5t62.5 117
t123 81.5v18q-76 31 -122.5 82t-63.5 119.5t-17 165.5v194q0 79 -9 127t-25 75t-40.5 44t-64 25.5t-118.5 8.5v81h26z" />
    <glyph glyph-name="asciitilde" unicode="~" horiz-adv-x="1134" 
d="M66 512q66 111 108 157t87.5 69.5t103.5 23.5q29 0 54 -6t49.5 -17.5t49.5 -29.5t77 -60q68 -57 107.5 -78t81.5 -21q36 0 62.5 14.5t53.5 48.5t72 112l96 -67q-63 -107 -104 -153t-87.5 -71.5t-104.5 -25.5q-37 0 -68 9t-65 28.5t-100 75.5q-54 44 -82 62.5t-54 27.5
t-53 9q-30 0 -53 -10.5t-44 -31.5t-41 -51.5t-50 -82.5z" />
    <glyph glyph-name="exclamdown" unicode="&#xa1;" horiz-adv-x="585" 
d="M191 723v233h201v-233h-201zM182 -409l65 949h97l49 -949h-211zM585 -430z" />
    <glyph glyph-name="cent" unicode="&#xa2;" horiz-adv-x="903" 
d="M474 -156v183q-181 7 -275 132.5t-94 355.5q0 133 45.5 239.5t129 172.5t194.5 83v189h104v-183q143 -3 264 -40v-189h-127q-23 69 -55 105.5t-82 43.5v-789q59 6 109.5 34t105.5 89l57 -66q-75 -82 -140.5 -120t-131.5 -50v-190h-104zM474 150v783q-92 -28 -143 -131
t-51 -264q0 -183 48 -274.5t146 -113.5zM903 972z" />
    <glyph glyph-name="sterling" unicode="&#xa3;" horiz-adv-x="1082" 
d="M986 356l-50 -356h-869v49q59 60 94.5 117t60 133.5t24.5 170.5v189h-165v116h165v150q0 126 29.5 209.5t92.5 140t146.5 81.5t191.5 25q131 0 255 -27v-216h-100q-18 60 -44 94.5t-64 49t-96 14.5q-77 0 -129.5 -41.5t-76.5 -118.5t-24 -231v-130h412v-116h-412v-63
q0 -78 -7.5 -133t-24 -98t-48.5 -96t-70 -99v-10h394q91 0 126 14t52.5 52t36.5 130h100z" />
    <glyph glyph-name="currency" unicode="&#xa4;" horiz-adv-x="1114" 
d="M867 462l123 -127l-94 -95l-127 127q-89 -70 -211 -70q-124 0 -214 70l-126 -127l-94 95l123 127q-70 97 -70 213q0 57 17.5 110t52.5 105l-123 123l94 94l126 -123q96 69 214 69q115 0 211 -69l127 126l94 -97l-123 -123q35 -52 52.5 -105t17.5 -110q0 -116 -70 -213z
M794 675q0 68 -30 123.5t-84 86.5t-122 31t-122.5 -31.5t-85 -86.5t-30.5 -123q0 -69 29.5 -124t84 -87t124.5 -32q67 0 121 31.5t84.5 87t30.5 124.5z" />
    <glyph glyph-name="yen" unicode="&#xa5;" horiz-adv-x="1248" 
d="M1121 695h-348l-69 -118v-82h417v-96h-417v-146q0 -57 6 -92t20 -56t37 -33t72 -23v-49h-449v49q48 10 71 21.5t37 33t20.5 56.5t6.5 93v146h-418v96h418v78l-66 122h-352v96h300l-158 295q-54 102 -82 142t-52 59t-54 29v49h418v-49q-94 -11 -94 -81q0 -29 13.5 -65
t48.5 -102l202 -391l203 358q40 70 56.5 116t16.5 84q0 36 -21.5 56.5t-63.5 24.5v49h371v-49q-41 -15 -72 -41.5t-63 -71.5t-94 -152l-153 -260h292v-96z" />
    <glyph glyph-name="brokenbar" unicode="&#xa6;" horiz-adv-x="648" 
d="M401 646h-154v785h154v-785zM401 -430h-154v783h154v-783z" />
    <glyph glyph-name="section" unicode="&#xa7;" horiz-adv-x="1024" 
d="M701 226q65 -53 97.5 -110t32.5 -142q0 -88 -47.5 -153.5t-130.5 -100t-186 -34.5q-91 0 -182.5 17t-162.5 48v218h99q45 -198 242 -198q95 0 149.5 47t54.5 126q0 45 -12 76.5t-40.5 62t-75.5 64t-144 95.5q-135 85 -193 137.5t-86 110t-28 133.5q0 88 59 162.5
t175 131.5q-67 57 -98 116t-31 138q0 75 44 136t123.5 95t182.5 34q90 0 167.5 -14t172.5 -51v-218h-99q-30 99 -85.5 148.5t-151.5 49.5q-58 0 -101.5 -21t-66 -56.5t-22.5 -77.5q0 -54 22.5 -94t76.5 -83t173 -118q92 -58 147.5 -100t90.5 -83.5t52.5 -89t17.5 -108.5
q0 -67 -32 -121.5t-83.5 -96t-120.5 -76.5zM392 862q-63 -33 -98 -86t-35 -113q0 -50 14 -85.5t44 -69.5t75 -68t113 -76q85 -53 126 -83q61 32 97.5 85.5t36.5 113.5q0 41 -10 75t-38.5 69.5t-78.5 74t-119 80.5q-80 49 -127 83z" />
    <glyph glyph-name="dieresis" unicode="&#xa8;" horiz-adv-x="583" 
d="M544 1339v-176h-167v176h167zM205 1339v-176h-167v176h167z" />
    <glyph glyph-name="copyright" unicode="&#xa9;" horiz-adv-x="1742" 
d="M1632 622q0 -161 -56 -300.5t-160.5 -243.5t-245 -160t-299.5 -56q-157 0 -295.5 54t-244 156.5t-163.5 244.5t-58 305t58 305t164 244.5t244 156.5t295 54q159 0 299.5 -56t245 -160t160.5 -243.5t56 -300.5zM1507 622q0 188 -80 340t-226.5 236.5t-330.5 84.5
t-330.5 -85t-225.5 -236.5t-79 -339.5q0 -191 80.5 -342.5t226 -235.5t328.5 -84q184 0 330 84.5t226.5 236.5t80.5 341zM1169 1021v-188h-85q-23 65 -49.5 101t-61.5 51.5t-96 15.5q-69 0 -120.5 -41t-80 -123.5t-28.5 -199.5q0 -80 12.5 -150.5t40.5 -124t72.5 -84
t109.5 -30.5q80 0 126 40.5t76 136.5h85v-194q-76 -33 -146.5 -45.5t-163.5 -12.5q-189 0 -286 112.5t-97 332.5q0 137 49 240.5t144 160.5t226 57q84 0 148 -13t125 -42z" />
    <glyph glyph-name="ordfeminine" unicode="&#xaa;" horiz-adv-x="854" 
d="M533 819l-7 5q-67 -64 -117.5 -87.5t-113.5 -23.5q-85 0 -135 45t-50 119q0 103 103 156.5t312 62.5v32q0 66 -13 104.5t-42.5 57.5t-81.5 19q-49 0 -85 -27t-52 -80h-105v96q89 43 163.5 63t144.5 20q79 0 124.5 -25t64 -70.5t18.5 -124.5v-232q0 -73 4.5 -98.5
t17.5 -40.5t60 -25v-41h-214zM525 1030q-141 -3 -210.5 -37t-69.5 -101q0 -49 27 -72.5t85 -23.5q28 0 54.5 10t47 26t34.5 34t23 41t9 59v64zM736 490h-618v92h618v-92z" />
    <glyph glyph-name="guillemotleft" unicode="&#xab;" horiz-adv-x="999" 
d="M899 113l-64 -50l-351 392v74l351 393l64 -50l-244 -380zM513 113l-64 -50l-349 392v74l349 393l64 -50l-241 -380z" />
    <glyph glyph-name="logicalnot" unicode="&#xac;" horiz-adv-x="1134" 
d="M842 294v430h-729v139h875v-569h-146z" />
    <glyph glyph-name="registered" unicode="&#xae;" horiz-adv-x="1742" 
d="M1632 622q0 -161 -56 -300.5t-160.5 -243.5t-245 -160t-299.5 -56q-157 0 -295.5 54t-244 156.5t-163.5 244.5t-58 305t58 305t164 244.5t244 156.5t295 54q159 0 299.5 -56t245 -160t160.5 -243.5t56 -300.5zM1507 622q0 188 -80 340t-226.5 236.5t-330.5 84.5
t-330.5 -85t-225.5 -236.5t-79 -339.5q0 -191 80.5 -342.5t226 -235.5t328.5 -84q184 0 330 84.5t226.5 236.5t80.5 341zM826 187h-336v44q38 11 55.5 28t25 45t7.5 75v494q0 44 -7 72t-23 45t-58 30v44h407q110 0 179.5 -25t106 -75t36.5 -135q0 -80 -50.5 -136.5
t-164.5 -94.5l1 -11q42 -20 70.5 -51.5t55.5 -87.5l49 -103q15 -32 29.5 -53t28 -33.5t27 -17.5t37.5 -10v-44h-214q-41 70 -71 142l-47 110q-19 45 -37.5 70.5t-38.5 38t-43.5 15.5t-52.5 3h-72v-160q0 -59 7 -93t26 -52.5t67 -29.5v-44zM726 984v-343h104
q119 0 174.5 44.5t55.5 132.5q0 64 -26.5 101t-73.5 52.5t-115 15.5h-30q-38 0 -89 -3z" />
    <glyph glyph-name="macron" unicode="&#xaf;" horiz-adv-x="583" 
d="M555 1188h-528v125h528v-125z" />
    <glyph glyph-name="macron" unicode="&#x2c9;" horiz-adv-x="583" 
d="M555 1188h-528v125h528v-125z" />
    <glyph glyph-name="degree" unicode="&#xb0;" horiz-adv-x="769" 
d="M376 783q-87 0 -153.5 39t-102.5 107.5t-36 154.5q0 85 38.5 153.5t107.5 106t156 37.5q86 0 153.5 -38t105 -106t37.5 -154q0 -85 -39.5 -153.5t-109.5 -107.5t-157 -39zM382 1282q-56 0 -100 -25.5t-68 -70.5t-24 -103t23.5 -103.5t68 -71t100.5 -25.5q57 0 101.5 25.5
t68.5 71t24 103.5t-24 103t-68.5 70.5t-101.5 25.5z" />
    <glyph glyph-name="plusminus" unicode="&#xb1;" horiz-adv-x="1134" 
d="M124 645v139h370v368h147v-368h369v-139h-369v-338h-147v338h-370zM124 26v139h886v-139h-886z" />
    <glyph glyph-name="uni00B2" unicode="&#xb2;" horiz-adv-x="834" 
d="M506 942q35 0 53.5 3.5t29.5 10.5t18.5 18t22.5 48h69l-14 -193h-586v38q34 73 92 144t136 146q93 89 132 134.5t58 86t19 81.5q0 68 -38.5 107t-110.5 39q-62 0 -105.5 -33t-66.5 -97h-95v135q89 36 164 51.5t133 15.5q79 0 130.5 -17t82.5 -44.5t43.5 -64.5t12.5 -76
q0 -49 -20 -91.5t-65.5 -92t-161.5 -154.5q-124 -113 -180 -195h247z" />
    <glyph glyph-name="uni00B3" unicode="&#xb3;" horiz-adv-x="834" 
d="M125 1473v138q161 66 293 66q70 0 129.5 -19t95.5 -60t36 -103q0 -54 -24.5 -93.5t-67 -68.5t-109.5 -57v-10q99 -16 159 -71.5t60 -134.5q0 -70 -36.5 -125t-111 -87t-181.5 -32q-68 0 -133 12t-120 33v146h91q21 -64 60.5 -93t105.5 -29q87 0 131.5 40t44.5 119
q0 84 -59 128t-176 44h-60v71q94 3 157 28.5t91.5 66t28.5 92.5q0 61 -37 96t-107 35q-61 0 -104 -33t-66 -98z" />
    <glyph glyph-name="acute" unicode="&#xb4;" horiz-adv-x="583" 
d="M521 1442v-50l-317 -322l-65 52l207 320h175z" />
    <glyph glyph-name="mu" unicode="&#xb5;" horiz-adv-x="1114" 
d="M353 405q0 -95 8 -152t31.5 -90.5t52.5 -46t78 -12.5q62 0 116.5 45.5t78.5 87.5t24 97v623h172v-750q0 -60 19 -88.5t53 -28.5q45 0 94 42l39 -60q-56 -46 -106 -66.5t-104 -20.5q-74 0 -115.5 44.5t-46.5 126.5l-9 3q-66 -71 -108.5 -103t-86 -48.5t-93.5 -16.5
q-38 0 -71 13.5t-65 44.5l-8 -6q7 -85 20.5 -176t30.5 -155v-55l-87 -58h-89v1357h172v-551zM1114 -430z" />
    <glyph glyph-name="paragraph" unicode="&#xb6;" horiz-adv-x="1204" 
d="M928 1261v-1691h-121v1691h-190v-1691h-121v1112q-130 0 -224 42t-142.5 118t-48.5 177q0 96 33 162t91.5 107t139.5 59t178 18h606v-104h-201z" />
    <glyph glyph-name="periodcentered" unicode="&#xb7;" horiz-adv-x="506" 
d="M364 801v-244h-222v244h222z" />
    <glyph glyph-name="cedilla" unicode="&#xb8;" horiz-adv-x="583" 
d="M521 37l-157 -117q10 -22 17 -53t7 -59q0 -103 -81.5 -165.5t-233.5 -72.5l-13 74q65 8 104 30t54 51.5t15 71.5q0 26 -6 52v40l254 177z" />
    <glyph glyph-name="uni00B9" unicode="&#xb9;" horiz-adv-x="834" 
d="M517 1007q0 -43 7.5 -61.5t24 -29t56 -16.5t126.5 -7v-64h-568v64q83 2 122 7.5t57 16t26.5 29t8.5 61.5v454q0 25 -9.5 36t-28.5 11q-21 0 -64.5 -22.5t-112.5 -65.5l-36 69l350 182h45q-1 -15 -2.5 -70.5t-1.5 -111.5v-482z" />
    <glyph glyph-name="ordmasculine" unicode="&#xba;" horiz-adv-x="876" 
d="M430 713q-152 0 -231 84t-79 244q0 112 42 189t115 114t165 37q86 0 146 -25t97.5 -68.5t54 -103t16.5 -128.5q0 -165 -85.5 -254t-240.5 -89zM267 1055q0 -135 44.5 -203.5t129.5 -68.5q82 0 125 67.5t43 186.5q0 97 -22.5 159t-60.5 88.5t-87 26.5q-85 0 -128.5 -64.5
t-43.5 -191.5zM748 490h-620v92h620v-92z" />
    <glyph glyph-name="guillemotright" unicode="&#xbb;" horiz-adv-x="999" 
d="M100 871l64 50l351 -392v-74l-351 -393l-64 50l244 380zM486 871l64 50l349 -392v-74l-349 -393l-64 50l241 380z" />
    <glyph glyph-name="onequarter" unicode="&#xbc;" horiz-adv-x="1772" 
d="M1296 -51q44 8 59 18t21.5 30.5t6.5 73.5v77h-387v54l405 539h116v-517h12q39 0 56.5 6.5t29 22.5t20.5 49h63l-9 -154h-172v-77q0 -54 7 -75t24 -30.5t56 -16.5v-45h-308v45zM1127 224h256v119q0 44 2 115.5t6 120.5h-9l-255 -347v-8zM517 711q0 -33 3.5 -50.5t14 -29
t31.5 -19t53.5 -11t96.5 -4.5v-64h-553v64q83 2 122 7.5t57 16t26.5 29t8.5 61.5v454q0 25 -9.5 36t-28.5 11q-21 0 -64.5 -22.5t-112.5 -65.5l-36 69l350 182h45q-1 -15 -2.5 -70.5t-1.5 -111.5v-482zM1426 1365l-882 -1461h-147l884 1461h145z" />
    <glyph glyph-name="onehalf" unicode="&#xbd;" horiz-adv-x="1822" 
d="M1494 17q35 0 53.5 3.5t29.5 10.5t18.5 18t22.5 48h69l-14 -193h-586v38q34 73 92 144t136 146q93 89 132 134.5t58 86t19 81.5q0 68 -38.5 107t-110.5 39q-62 0 -105.5 -33t-66.5 -97h-95v135q89 36 164 51.5t133 15.5q79 0 130.5 -17t82.5 -44.5t43.5 -64.5t12.5 -76
q0 -49 -20 -91.5t-65.5 -92t-161.5 -154.5q-124 -113 -180 -195h247zM517 711q0 -33 3.5 -50.5t14 -29t31.5 -19t53.5 -11t96.5 -4.5v-64h-553v64q83 2 122 7.5t57 16t26.5 29t8.5 61.5v454q0 25 -9.5 36t-28.5 11q-21 0 -64.5 -22.5t-112.5 -65.5l-36 69l350 182h45
q-1 -15 -2.5 -70.5t-1.5 -111.5v-482zM1426 1365l-882 -1461h-147l884 1461h145z" />
    <glyph glyph-name="threequarters" unicode="&#xbe;" horiz-adv-x="1772" 
d="M120 1177v138q161 66 293 66q70 0 129.5 -19t95.5 -60t36 -103q0 -54 -24.5 -93.5t-67 -68.5t-109.5 -57v-10q99 -16 159 -71.5t60 -134.5q0 -70 -36.5 -125t-111 -87t-181.5 -32q-68 0 -133 12t-120 33v146h91q21 -64 60.5 -93t105.5 -29q87 0 131.5 40t44.5 119
q0 84 -59 128t-176 44h-60v71q94 3 157 28.5t91.5 66t28.5 92.5q0 61 -37 96t-107 35q-61 0 -104 -33t-66 -98zM1421 1365l-882 -1461h-147l884 1461h145zM1291 -51q44 8 59 18t21.5 30.5t6.5 73.5v77h-387v54l405 539h116v-517h12q39 0 56.5 6.5t29 22.5t20.5 49h63
l-9 -154h-172v-77q0 -54 7 -75t24 -30.5t56 -16.5v-45h-308v45zM1122 224h256v119q0 44 2 115.5t6 120.5h-9l-255 -347v-8z" />
    <glyph glyph-name="questiondown" unicode="&#xbf;" horiz-adv-x="865" 
d="M380 724v232h200v-232h-200zM549 540v-34q0 -41 -5 -66t-17.5 -53.5t-39 -67.5t-75.5 -100q-58 -74 -83.5 -120t-38.5 -95.5t-13 -110.5q0 -114 45.5 -176t122.5 -62t125 46t67 142h136v-164q-114 -58 -193.5 -81t-156.5 -23q-120 0 -198 35.5t-114 97.5t-36 144
q0 41 7.5 75.5t22.5 67.5t38 67.5t51.5 69.5t99.5 118q53 62 77 99.5t34 73t10 92.5v25h134z" />
    <glyph glyph-name="Agrave" unicode="&#xc0;" horiz-adv-x="1276" 
d="M796 0v49q50 10 74.5 22t36.5 33.5t12 57.5q0 34 -8 73.5t-23 88.5l-37 129h-466l-34 -98q-26 -74 -34 -112t-8 -69q0 -60 30.5 -88t93.5 -37v-49h-427v49q56 9 97.5 65t80.5 160l417 1107h158l340 -1115q24 -78 42.5 -119t44.5 -64t71 -34v-49h-461zM412 540h418
l-190 645zM592 1782l241 -257l-56 -57l-383 264v50h198z" />
    <glyph glyph-name="Aacute" unicode="&#xc1;" horiz-adv-x="1276" 
d="M796 0v49q50 10 74.5 22t36.5 33.5t12 57.5q0 34 -8 73.5t-23 88.5l-37 129h-466l-34 -98q-26 -74 -34 -112t-8 -69q0 -60 30.5 -88t93.5 -37v-49h-427v49q56 9 97.5 65t80.5 160l417 1107h158l340 -1115q24 -78 42.5 -119t44.5 -64t71 -34v-49h-461zM412 540h418
l-190 645zM956 1782v-50l-382 -264l-56 57l241 257h197z" />
    <glyph glyph-name="Acircumflex" unicode="&#xc2;" horiz-adv-x="1276" 
d="M796 0v49q50 10 74.5 22t36.5 33.5t12 57.5q0 34 -8 73.5t-23 88.5l-37 129h-466l-34 -98q-26 -74 -34 -112t-8 -69q0 -60 30.5 -88t93.5 -37v-49h-427v49q56 9 97.5 65t80.5 160l417 1107h158l340 -1115q24 -78 42.5 -119t44.5 -64t71 -34v-49h-461zM412 540h418
l-190 645zM748 1780l228 -254l-57 -58l-238 185h-11l-240 -185l-56 58l240 254h134z" />
    <glyph glyph-name="Atilde" unicode="&#xc3;" horiz-adv-x="1276" 
d="M796 0v49q50 10 74.5 22t36.5 33.5t12 57.5q0 34 -8 73.5t-23 88.5l-37 129h-466l-34 -98q-26 -74 -34 -112t-8 -69q0 -60 30.5 -88t93.5 -37v-49h-427v49q56 9 97.5 65t80.5 160l417 1107h158l340 -1115q24 -78 42.5 -119t44.5 -64t71 -34v-49h-461zM412 540h418
l-190 645zM928 1718l78 -34q-38 -82 -72.5 -126.5t-66 -61t-71.5 -16.5q-27 0 -47 5.5t-39.5 16t-60.5 38.5q-27 18 -42.5 28t-32.5 16.5t-36 6.5q-26 0 -43.5 -10t-35.5 -35t-37 -66l-78 34q48 96 78 133.5t61.5 54t75.5 16.5q24 0 43.5 -5.5t36 -14.5t56.5 -36
q29 -20 46 -31t35 -17.5t41 -6.5q32 0 57 24.5t54 86.5z" />
    <glyph glyph-name="Adieresis" unicode="&#xc4;" horiz-adv-x="1276" 
d="M796 0v49q50 10 74.5 22t36.5 33.5t12 57.5q0 34 -8 73.5t-23 88.5l-37 129h-466l-34 -98q-26 -74 -34 -112t-8 -69q0 -60 30.5 -88t93.5 -37v-49h-427v49q56 9 97.5 65t80.5 160l417 1107h158l340 -1115q24 -78 42.5 -119t44.5 -64t71 -34v-49h-461zM412 540h418
l-190 645zM943 1690v-176h-167v176h167zM574 1690v-176h-167v176h167z" />
    <glyph glyph-name="Aring" unicode="&#xc5;" horiz-adv-x="1276" 
d="M796 0v49q50 10 74.5 22t36.5 33.5t12 57.5q0 34 -8 73.5t-23 88.5l-37 129h-466l-34 -98q-26 -74 -34 -112t-8 -69q0 -60 30.5 -88t93.5 -37v-49h-427v49q56 9 97.5 65t80.5 160l417 1107h158l340 -1115q24 -78 42.5 -119t44.5 -64t71 -34v-49h-461zM412 540h418
l-190 645zM669 1424q-108 0 -164.5 50t-56.5 147q0 66 29.5 112.5t81.5 69t118 22.5q110 0 167 -50t57 -145q0 -99 -60.5 -152.5t-171.5 -53.5zM553 1628q0 -67 31 -104.5t93 -37.5q58 0 88.5 35t30.5 98q0 70 -32.5 107t-88.5 37q-60 0 -91 -35t-31 -100z" />
    <glyph glyph-name="AE" unicode="&#xc6;" horiz-adv-x="1774" 
d="M1652 1365v-302h-98q-15 49 -31 86t-33 62t-37.5 40t-48.5 20.5t-67 5.5h-342l32 -524h208q44 0 69 12.5t41.5 42.5t31.5 94h94v-384h-94q-14 60 -31 90.5t-40.5 43.5t-70.5 13h-202l39 -577h260q49 0 79.5 8.5t52.5 29t39 53.5t28.5 68.5t31.5 103.5h99l-19 -351h-883
v49q47 10 71 25.5t35.5 43t11.5 75.5q0 30 -2 57l-14 203h-430l-51 -98q-14 -27 -35.5 -73.5t-29 -73t-7.5 -46.5q0 -59 24.5 -82t81.5 -31v-49h-415v49q59 21 105.5 74t96.5 150l568 1092h882zM857 540l-30 501l-4 98q-1 43 -1 72h-10l-340 -671h385z" />
    <glyph glyph-name="Ccedilla" unicode="&#xc7;" horiz-adv-x="1152" 
d="M1042 1336v-277h-99q-24 87 -61 138.5t-86 73.5t-118 22q-103 0 -183.5 -68.5t-126.5 -206t-46 -332.5q0 -196 38 -334.5t112 -209t182 -70.5q82 0 134 23.5t87.5 74.5t67.5 150h99v-286q-132 -34 -277 -45l-91 -69q10 -22 17 -53t7 -59q0 -103 -81.5 -165.5
t-233.5 -72.5l-13 74q65 8 104 30t54 51.5t15 71.5q0 26 -6 52v40l137 96q-10 -1 -20 -1h-21q-254 0 -384 172t-130 513q0 214 67.5 375t198.5 249t313 88q91 0 168 -9.5t176 -35.5z" />
    <glyph glyph-name="Egrave" unicode="&#xc8;" horiz-adv-x="1178" 
d="M1056 1365v-302h-98q-15 49 -31 86t-33 62t-37.5 40t-48.5 20.5t-67 5.5h-316v-524h214q44 0 69 12.5t41.5 42.5t31.5 94h94v-384h-94q-14 60 -31 90.5t-40.5 43.5t-70.5 13h-214v-577h311q49 0 79.5 8.5t52.5 29t39 53.5t28.5 68.5t31.5 103.5h99l-19 -351h-926v49
q62 16 83 35.5t27.5 55.5t6.5 110v865q0 69 -5 100.5t-16.5 49t-30.5 28t-65 23.5v49h935zM522 1782l241 -257l-56 -57l-383 264v50h198z" />
    <glyph glyph-name="Eacute" unicode="&#xc9;" horiz-adv-x="1178" 
d="M1056 1365v-302h-98q-15 49 -31 86t-33 62t-37.5 40t-48.5 20.5t-67 5.5h-316v-524h214q44 0 69 12.5t41.5 42.5t31.5 94h94v-384h-94q-14 60 -31 90.5t-40.5 43.5t-70.5 13h-214v-577h311q49 0 79.5 8.5t52.5 29t39 53.5t28.5 68.5t31.5 103.5h99l-19 -351h-926v49
q62 16 83 35.5t27.5 55.5t6.5 110v865q0 69 -5 100.5t-16.5 49t-30.5 28t-65 23.5v49h935zM890 1782v-50l-382 -264l-56 57l241 257h197z" />
    <glyph glyph-name="Ecircumflex" unicode="&#xca;" horiz-adv-x="1178" 
d="M1056 1365v-302h-98q-15 49 -31 86t-33 62t-37.5 40t-48.5 20.5t-67 5.5h-316v-524h214q44 0 69 12.5t41.5 42.5t31.5 94h94v-384h-94q-14 60 -31 90.5t-40.5 43.5t-70.5 13h-214v-577h311q49 0 79.5 8.5t52.5 29t39 53.5t28.5 68.5t31.5 103.5h99l-19 -351h-926v49
q62 16 83 35.5t27.5 55.5t6.5 110v865q0 69 -5 100.5t-16.5 49t-30.5 28t-65 23.5v49h935zM682 1780l228 -254l-57 -58l-238 185h-11l-240 -185l-56 58l240 254h134z" />
    <glyph glyph-name="Edieresis" unicode="&#xcb;" horiz-adv-x="1178" 
d="M1056 1365v-302h-98q-15 49 -31 86t-33 62t-37.5 40t-48.5 20.5t-67 5.5h-316v-524h214q44 0 69 12.5t41.5 42.5t31.5 94h94v-384h-94q-14 60 -31 90.5t-40.5 43.5t-70.5 13h-214v-577h311q49 0 79.5 8.5t52.5 29t39 53.5t28.5 68.5t31.5 103.5h99l-19 -351h-926v49
q62 16 83 35.5t27.5 55.5t6.5 110v865q0 69 -5 100.5t-16.5 49t-30.5 28t-65 23.5v49h935zM877 1690v-176h-167v176h167zM508 1690v-176h-167v176h167z" />
    <glyph glyph-name="Igrave" unicode="&#xcc;" horiz-adv-x="664" 
d="M426 250q0 -67 4.5 -98t15 -49t31 -30t66.5 -24v-49h-422v49q62 16 83 35.5t27.5 55.5t6.5 110v865q0 69 -5 100.5t-16.5 49t-30.5 28t-65 23.5v49h422v-49q-44 -11 -63.5 -22t-31 -27.5t-17 -49.5t-5.5 -102v-865zM249 1782l241 -257l-56 -57l-383 264v50h198z" />
    <glyph glyph-name="Iacute" unicode="&#xcd;" horiz-adv-x="664" 
d="M426 250q0 -67 4.5 -98t15 -49t31 -30t66.5 -24v-49h-422v49q62 16 83 35.5t27.5 55.5t6.5 110v865q0 69 -5 100.5t-16.5 49t-30.5 28t-65 23.5v49h422v-49q-44 -11 -63.5 -22t-31 -27.5t-17 -49.5t-5.5 -102v-865zM613 1782v-50l-382 -264l-56 57l241 257h197z" />
    <glyph glyph-name="Icircumflex" unicode="&#xce;" horiz-adv-x="664" 
d="M426 250q0 -67 4.5 -98t15 -49t31 -30t66.5 -24v-49h-422v49q62 16 83 35.5t27.5 55.5t6.5 110v865q0 69 -5 100.5t-16.5 49t-30.5 28t-65 23.5v49h422v-49q-44 -11 -63.5 -22t-31 -27.5t-17 -49.5t-5.5 -102v-865zM405 1780l228 -254l-57 -58l-238 185h-11l-240 -185
l-56 58l240 254h134z" />
    <glyph glyph-name="Idieresis" unicode="&#xcf;" horiz-adv-x="664" 
d="M426 250q0 -67 4.5 -98t15 -49t31 -30t66.5 -24v-49h-422v49q62 16 83 35.5t27.5 55.5t6.5 110v865q0 69 -5 100.5t-16.5 49t-30.5 28t-65 23.5v49h422v-49q-44 -11 -63.5 -22t-31 -27.5t-17 -49.5t-5.5 -102v-865zM600 1690v-176h-167v176h167zM231 1690v-176h-167v176
h167z" />
    <glyph glyph-name="Eth" unicode="&#xd0;" horiz-adv-x="1361" 
d="M50 761h194v354q0 70 -5 101.5t-16.5 48.5t-30.5 27.5t-66 23.5v49h437q187 0 307.5 -41t204.5 -121.5t125.5 -201.5t41.5 -289q0 -169 -38.5 -297.5t-112.5 -215.5q-64 -76 -157 -125q-77 -40 -178 -57t-268 -17h-362v49q46 12 66 23t31 28t16 49t5 101v419h-194v92z
M431 93q40 -4 118 -4q170 0 271 57.5t159.5 189t58.5 358.5q0 203 -58.5 333.5t-165 190.5t-254.5 60q-68 0 -129 -4v-513h320v-92h-320v-576z" />
    <glyph glyph-name="Ntilde" unicode="&#xd1;" horiz-adv-x="1394" 
d="M924 541q36 -60 60.5 -105t50.5 -101h13q-5 61 -9 242.5t-4 327.5v210q0 69 -4 101t-14.5 49t-29 27.5t-64.5 23.5v49h360v-49q-45 -12 -63.5 -22t-30 -26t-17.5 -48t-6 -105v-1121h-125l-557 934q-52 87 -74 127t-41 79h-17q7 -77 10 -278.5t3 -401.5v-204
q0 -67 4.5 -98t15 -49t31 -30t66.5 -24v-49h-365v49q62 16 83 35.5t27.5 55.5t6.5 110v865q0 69 -5 100.5t-16.5 49t-30.5 28t-65 23.5v49h313zM973 1718l78 -34q-38 -82 -72.5 -126.5t-66 -61t-71.5 -16.5q-27 0 -47 5.5t-39.5 16t-60.5 38.5q-27 18 -42.5 28t-32.5 16.5
t-36 6.5q-26 0 -43.5 -10t-35.5 -35t-37 -66l-78 34q48 96 78 133.5t61.5 54t75.5 16.5q24 0 43.5 -5.5t36 -14.5t56.5 -36q29 -20 46 -31t35 -17.5t41 -6.5q32 0 57 24.5t54 86.5z" />
    <glyph glyph-name="Ograve" unicode="&#xd2;" horiz-adv-x="1338" 
d="M654 -16q-120 0 -218.5 39.5t-169 123t-109 213.5t-38.5 311q0 223 68 383t194.5 243.5t293.5 83.5q178 0 299.5 -78.5t183 -231t61.5 -371.5q0 -234 -70 -395t-197.5 -241t-297.5 -80zM325 699q0 -307 89.5 -467t261.5 -160q109 0 185 69.5t114 203.5t38 313
q0 218 -44.5 361.5t-121.5 208.5t-179 65q-90 0 -154.5 -42t-107 -119.5t-62 -187.5t-19.5 -245zM586 1782l241 -257l-56 -57l-383 264v50h198z" />
    <glyph glyph-name="Oacute" unicode="&#xd3;" horiz-adv-x="1338" 
d="M654 -16q-120 0 -218.5 39.5t-169 123t-109 213.5t-38.5 311q0 223 68 383t194.5 243.5t293.5 83.5q178 0 299.5 -78.5t183 -231t61.5 -371.5q0 -234 -70 -395t-197.5 -241t-297.5 -80zM325 699q0 -307 89.5 -467t261.5 -160q109 0 185 69.5t114 203.5t38 313
q0 218 -44.5 361.5t-121.5 208.5t-179 65q-90 0 -154.5 -42t-107 -119.5t-62 -187.5t-19.5 -245zM950 1782v-50l-382 -264l-56 57l241 257h197z" />
    <glyph glyph-name="Ocircumflex" unicode="&#xd4;" horiz-adv-x="1338" 
d="M654 -16q-120 0 -218.5 39.5t-169 123t-109 213.5t-38.5 311q0 223 68 383t194.5 243.5t293.5 83.5q178 0 299.5 -78.5t183 -231t61.5 -371.5q0 -234 -70 -395t-197.5 -241t-297.5 -80zM325 699q0 -307 89.5 -467t261.5 -160q109 0 185 69.5t114 203.5t38 313
q0 218 -44.5 361.5t-121.5 208.5t-179 65q-90 0 -154.5 -42t-107 -119.5t-62 -187.5t-19.5 -245zM742 1780l228 -254l-57 -58l-238 185h-11l-240 -185l-56 58l240 254h134z" />
    <glyph glyph-name="Otilde" unicode="&#xd5;" horiz-adv-x="1338" 
d="M654 -16q-120 0 -218.5 39.5t-169 123t-109 213.5t-38.5 311q0 223 68 383t194.5 243.5t293.5 83.5q178 0 299.5 -78.5t183 -231t61.5 -371.5q0 -234 -70 -395t-197.5 -241t-297.5 -80zM325 699q0 -307 89.5 -467t261.5 -160q109 0 185 69.5t114 203.5t38 313
q0 218 -44.5 361.5t-121.5 208.5t-179 65q-90 0 -154.5 -42t-107 -119.5t-62 -187.5t-19.5 -245zM922 1718l78 -34q-38 -82 -72.5 -126.5t-66 -61t-71.5 -16.5q-27 0 -47 5.5t-39.5 16t-60.5 38.5q-27 18 -42.5 28t-32.5 16.5t-36 6.5q-26 0 -43.5 -10t-35.5 -35t-37 -66
l-78 34q48 96 78 133.5t61.5 54t75.5 16.5q24 0 43.5 -5.5t36 -14.5t56.5 -36q29 -20 46 -31t35 -17.5t41 -6.5q32 0 57 24.5t54 86.5z" />
    <glyph glyph-name="Odieresis" unicode="&#xd6;" horiz-adv-x="1338" 
d="M654 -16q-120 0 -218.5 39.5t-169 123t-109 213.5t-38.5 311q0 223 68 383t194.5 243.5t293.5 83.5q178 0 299.5 -78.5t183 -231t61.5 -371.5q0 -234 -70 -395t-197.5 -241t-297.5 -80zM325 699q0 -307 89.5 -467t261.5 -160q109 0 185 69.5t114 203.5t38 313
q0 218 -44.5 361.5t-121.5 208.5t-179 65q-90 0 -154.5 -42t-107 -119.5t-62 -187.5t-19.5 -245zM937 1690v-176h-167v176h167zM568 1690v-176h-167v176h167z" />
    <glyph glyph-name="multiply" unicode="&#xd7;" horiz-adv-x="1134" 
d="M665 585l301 -298l-101 -101l-298 302l-298 -302l-101 101l301 298l-301 298l101 101l298 -301l298 301l101 -100z" />
    <glyph glyph-name="Oslash" unicode="&#xd8;" horiz-adv-x="1338" 
d="M101 -135l169 277q-72 83 -111.5 214.5t-39.5 314.5q0 223 68 383t194.5 243.5t293.5 83.5q93 0 166.5 -21.5t136.5 -63.5l121 203h138l-170 -277q74 -86 113 -216.5t39 -305.5q0 -234 -70 -395t-197.5 -241t-297.5 -80q-175 0 -297 83l-119 -202h-137zM379 310l520 859
q-45 64 -103.5 94t-127.5 30q-90 0 -154.5 -42t-107 -119.5t-62 -187.5t-19.5 -245q0 -235 54 -389zM958 1053l-520 -858q87 -123 238 -123q109 0 185 69.5t114 203.5t38 313q0 238 -55 395z" />
    <glyph glyph-name="Ugrave" unicode="&#xd9;" horiz-adv-x="1327" 
d="M1125 472q0 -109 -20 -188q-19 -75 -57 -133q-35 -52 -87 -88.5t-126 -57.5t-174 -21q-121 0 -207.5 27t-143 88.5t-81.5 145t-25 212.5v658q0 78 -5 105.5t-14.5 43.5t-27.5 27.5t-67 24.5v49h420v-49q-56 -14 -78 -31.5t-30 -52.5t-8 -117v-708q0 -97 20.5 -163
t57.5 -102.5t88 -53t127 -16.5q70 0 123 24.5t88.5 74.5t48.5 123t13 196v625q0 87 -8.5 119t-28 49t-80.5 33v49h399v-49q-58 -15 -79.5 -33t-29.5 -52t-8 -116v-643zM575 1782l241 -257l-56 -57l-383 264v50h198z" />
    <glyph glyph-name="Uacute" unicode="&#xda;" horiz-adv-x="1327" 
d="M1125 472q0 -109 -20 -188q-19 -75 -57 -133q-35 -52 -87 -88.5t-126 -57.5t-174 -21q-121 0 -207.5 27t-143 88.5t-81.5 145t-25 212.5v658q0 78 -5 105.5t-14.5 43.5t-27.5 27.5t-67 24.5v49h420v-49q-56 -14 -78 -31.5t-30 -52.5t-8 -117v-708q0 -97 20.5 -163
t57.5 -102.5t88 -53t127 -16.5q70 0 123 24.5t88.5 74.5t48.5 123t13 196v625q0 87 -8.5 119t-28 49t-80.5 33v49h399v-49q-58 -15 -79.5 -33t-29.5 -52t-8 -116v-643zM994 1782v-50l-382 -264l-56 57l241 257h197z" />
    <glyph glyph-name="Ucircumflex" unicode="&#xdb;" horiz-adv-x="1327" 
d="M1125 472q0 -109 -20 -188q-19 -75 -57 -133q-35 -52 -87 -88.5t-126 -57.5t-174 -21q-121 0 -207.5 27t-143 88.5t-81.5 145t-25 212.5v658q0 78 -5 105.5t-14.5 43.5t-27.5 27.5t-67 24.5v49h420v-49q-56 -14 -78 -31.5t-30 -52.5t-8 -117v-708q0 -97 20.5 -163
t57.5 -102.5t88 -53t127 -16.5q70 0 123 24.5t88.5 74.5t48.5 123t13 196v625q0 87 -8.5 119t-28 49t-80.5 33v49h399v-49q-58 -15 -79.5 -33t-29.5 -52t-8 -116v-643zM756 1780l228 -254l-57 -58l-238 185h-11l-240 -185l-56 58l240 254h134z" />
    <glyph glyph-name="Udieresis" unicode="&#xdc;" horiz-adv-x="1327" 
d="M1125 472q0 -109 -20 -188q-19 -75 -57 -133q-35 -52 -87 -88.5t-126 -57.5t-174 -21q-121 0 -207.5 27t-143 88.5t-81.5 145t-25 212.5v658q0 78 -5 105.5t-14.5 43.5t-27.5 27.5t-67 24.5v49h420v-49q-56 -14 -78 -31.5t-30 -52.5t-8 -117v-708q0 -97 20.5 -163
t57.5 -102.5t88 -53t127 -16.5q70 0 123 24.5t88.5 74.5t48.5 123t13 196v625q0 87 -8.5 119t-28 49t-80.5 33v49h399v-49q-58 -15 -79.5 -33t-29.5 -52t-8 -116v-643zM951 1690v-176h-167v176h167zM582 1690v-176h-167v176h167z" />
    <glyph glyph-name="Yacute" unicode="&#xdd;" horiz-adv-x="1168" 
d="M482 573l-276 513q-50 93 -76 133t-52 63t-60 34v49h426v-49q-94 -11 -94 -81q0 -29 13.5 -65t48.5 -102l200 -381l197 348q40 71 56.5 116.5t16.5 83.5q0 36 -21.5 56.5t-63.5 24.5v49h379v-49q-41 -15 -72 -41.5t-63 -71.5t-94 -152l-278 -474v-324q0 -57 6 -92t20 -56
t37 -33t72 -23v-49h-457v49q48 10 71 21.5t37 33t20.5 56.5t6.5 93v320zM935 1782v-50l-382 -264l-56 57l241 257h197z" />
    <glyph glyph-name="Thorn" unicode="&#xde;" horiz-adv-x="1175" 
d="M542 1365v-49q-45 -12 -63.5 -22t-30 -26t-17.5 -48t-6 -105v-7h197q234 0 348.5 -89.5t114.5 -272.5q0 -104 -36 -187t-102 -136t-156 -76t-189 -23q-95 0 -177 4v-75q0 -59 6.5 -94t20 -55.5t36.5 -32t72 -22.5v-49h-439v49q62 16 83 35.5t27.5 55.5t6.5 110v865
q0 69 -5 100.5t-16.5 49t-30.5 28t-65 23.5v49h421zM425 411h121q113 0 186.5 29.5t112.5 98t39 181.5q0 86 -23 143.5t-63.5 92.5t-96.5 49.5t-122 14.5q-85 0 -154 -4v-605z" />
    <glyph glyph-name="germandbls" unicode="&#xdf;" horiz-adv-x="1240" 
d="M372 0h-285v49q44 12 63 23t29.5 28t15.5 49t5 101v605h-121v51q62 7 90 31.5t34 79.5q10 92 43 169t95.5 133t149.5 86.5t200 30.5q159 0 247 -70t88 -198q0 -51 -17 -93t-56.5 -85t-145.5 -123q-39 -31 -59 -50.5t-31.5 -41.5t-11.5 -46q0 -41 17 -67.5t56 -51.5
t114 -57q103 -44 157.5 -80.5t86.5 -86t32 -117.5q0 -79 -27 -133t-75.5 -88t-115 -49t-144.5 -15q-136 0 -277 40v176h92q21 -51 45 -79t59 -43t86 -15q36 0 70 7.5t60 25t42 47.5t16 75q0 27 -5.5 48.5t-16.5 38.5t-26 30.5t-33 25t-50.5 27t-98.5 43.5q-73 31 -118.5 65
t-69.5 78.5t-24 105.5q0 63 36.5 113.5t122.5 116.5q58 45 87.5 80.5t44.5 76t15 92.5q0 56 -16 93.5t-43 60.5t-62.5 33t-73.5 10q-59 0 -105.5 -17t-84.5 -55t-61.5 -97.5t-34 -144.5t-10.5 -221v-821z" />
    <glyph glyph-name="agrave" unicode="&#xe0;" horiz-adv-x="1000" 
d="M675 143l-15 4q-87 -89 -163.5 -126t-162.5 -37q-76 0 -134 29.5t-89 83t-31 123.5q0 146 144.5 225.5t433.5 92.5v65q0 104 -20 164t-63 88t-115 28q-78 0 -125.5 -41t-71.5 -123h-131v130q96 50 160 73.5t128 37t130 13.5q99 0 159 -31.5t90 -96.5t30 -196v-348
q0 -74 1 -104.5t6 -56.5t15 -41.5t29.5 -26.5t63.5 -23v-49h-274zM658 456q-203 -2 -304 -54t-101 -157q0 -57 23 -90t58 -45.5t83 -12.5q68 0 123.5 33t86.5 84t31 101v141zM412 1442l207 -320l-66 -52l-316 322v50h175z" />
    <glyph glyph-name="aacute" unicode="&#xe1;" horiz-adv-x="1000" 
d="M675 143l-15 4q-87 -89 -163.5 -126t-162.5 -37q-76 0 -134 29.5t-89 83t-31 123.5q0 146 144.5 225.5t433.5 92.5v65q0 104 -20 164t-63 88t-115 28q-78 0 -125.5 -41t-71.5 -123h-131v130q96 50 160 73.5t128 37t130 13.5q99 0 159 -31.5t90 -96.5t30 -196v-348
q0 -74 1 -104.5t6 -56.5t15 -41.5t29.5 -26.5t63.5 -23v-49h-274zM658 456q-203 -2 -304 -54t-101 -157q0 -57 23 -90t58 -45.5t83 -12.5q68 0 123.5 33t86.5 84t31 101v141zM743 1442v-50l-317 -322l-65 52l207 320h175z" />
    <glyph glyph-name="acircumflex" unicode="&#xe2;" horiz-adv-x="1000" 
d="M675 143l-15 4q-87 -89 -163.5 -126t-162.5 -37q-76 0 -134 29.5t-89 83t-31 123.5q0 146 144.5 225.5t433.5 92.5v65q0 104 -20 164t-63 88t-115 28q-78 0 -125.5 -41t-71.5 -123h-131v130q96 50 160 73.5t128 37t130 13.5q99 0 159 -31.5t90 -96.5t30 -196v-348
q0 -74 1 -104.5t6 -56.5t15 -41.5t29.5 -26.5t63.5 -23v-49h-274zM658 456q-203 -2 -304 -54t-101 -157q0 -57 23 -90t58 -45.5t83 -12.5q68 0 123.5 33t86.5 84t31 101v141zM562 1442l214 -315l-69 -57l-212 243h-11l-212 -243l-68 57l224 315h134z" />
    <glyph glyph-name="atilde" unicode="&#xe3;" horiz-adv-x="1000" 
d="M675 143l-15 4q-87 -89 -163.5 -126t-162.5 -37q-76 0 -134 29.5t-89 83t-31 123.5q0 146 144.5 225.5t433.5 92.5v65q0 104 -20 164t-63 88t-115 28q-78 0 -125.5 -41t-71.5 -123h-131v130q96 50 160 73.5t128 37t130 13.5q99 0 159 -31.5t90 -96.5t30 -196v-348
q0 -74 1 -104.5t6 -56.5t15 -41.5t29.5 -26.5t63.5 -23v-49h-274zM658 456q-203 -2 -304 -54t-101 -157q0 -57 23 -90t58 -45.5t83 -12.5q68 0 123.5 33t86.5 84t31 101v141zM743 1366l78 -34q-38 -82 -72.5 -126.5t-66 -61t-71.5 -16.5q-27 0 -47 5.5t-39.5 16t-60.5 38.5
q-27 18 -42.5 28t-32.5 16.5t-36 6.5q-26 0 -43.5 -10t-35.5 -35t-37 -66l-78 34q48 96 78 133.5t61.5 54t75.5 16.5q24 0 43.5 -5.5t36 -14.5t56.5 -36q29 -20 46 -31t35 -17.5t41 -6.5q32 0 57 24.5t54 86.5z" />
    <glyph glyph-name="adieresis" unicode="&#xe4;" horiz-adv-x="1000" 
d="M675 143l-15 4q-87 -89 -163.5 -126t-162.5 -37q-76 0 -134 29.5t-89 83t-31 123.5q0 146 144.5 225.5t433.5 92.5v65q0 104 -20 164t-63 88t-115 28q-78 0 -125.5 -41t-71.5 -123h-131v130q96 50 160 73.5t128 37t130 13.5q99 0 159 -31.5t90 -96.5t30 -196v-348
q0 -74 1 -104.5t6 -56.5t15 -41.5t29.5 -26.5t63.5 -23v-49h-274zM658 456q-203 -2 -304 -54t-101 -157q0 -57 23 -90t58 -45.5t83 -12.5q68 0 123.5 33t86.5 84t31 101v141zM743 1339v-176h-167v176h167zM404 1339v-176h-167v176h167z" />
    <glyph glyph-name="aring" unicode="&#xe5;" horiz-adv-x="1000" 
d="M675 143l-15 4q-87 -89 -163.5 -126t-162.5 -37q-76 0 -134 29.5t-89 83t-31 123.5q0 146 144.5 225.5t433.5 92.5v65q0 104 -20 164t-63 88t-115 28q-78 0 -125.5 -41t-71.5 -123h-131v130q96 50 160 73.5t128 37t130 13.5q99 0 159 -31.5t90 -96.5t30 -196v-348
q0 -74 1 -104.5t6 -56.5t15 -41.5t29.5 -26.5t63.5 -23v-49h-274zM658 456q-203 -2 -304 -54t-101 -157q0 -57 23 -90t58 -45.5t83 -12.5q68 0 123.5 33t86.5 84t31 101v141zM484 1071q-108 0 -164.5 50t-56.5 147q0 66 29.5 112.5t81.5 69t118 22.5q110 0 167 -50t57 -145
q0 -99 -60.5 -152.5t-171.5 -53.5zM368 1275q0 -67 31 -104.5t93 -37.5q58 0 88.5 35t30.5 98q0 70 -32.5 107t-88.5 37q-60 0 -91 -35t-31 -100z" />
    <glyph glyph-name="ae" unicode="&#xe6;" horiz-adv-x="1541" 
d="M828 493v-18q0 -118 26.5 -198.5t87 -126t157.5 -45.5q82 0 147.5 30.5t130.5 99.5l61 -65q-64 -67 -117.5 -105t-117.5 -59.5t-141 -21.5q-129 0 -218 48t-137 145h-7q-70 -73 -125 -113t-114 -60t-127 -20q-76 0 -134 29.5t-89 83t-31 123.5q0 146 144.5 225.5
t433.5 92.5v65q0 104 -20 164t-63 88t-115 28q-78 0 -125.5 -41t-71.5 -123h-131v130q96 50 160 73.5t128 37t130 13.5q88 0 140 -33t84 -106h12q58 70 130 104.5t164 34.5q101 0 172 -32t113.5 -87.5t66 -140t26.5 -220.5h-630zM1270 576q-6 108 -27 176.5t-63 105
t-110 36.5q-103 0 -164.5 -82.5t-72.5 -235.5h437zM658 456q-203 -2 -304 -54t-101 -157q0 -57 23 -90t58 -45.5t83 -12.5q68 0 123.5 33t86.5 84t31 101v141z" />
    <glyph glyph-name="ccedilla" unicode="&#xe7;" horiz-adv-x="903" 
d="M842 933v-209h-127q-17 65 -42 102.5t-58 52.5t-82 15q-70 0 -124 -45t-85.5 -137t-31.5 -223q0 -86 12 -156.5t41 -121t77 -78.5t119 -28q69 0 128.5 27t123.5 95l57 -66q-28 -31 -66 -65.5t-88 -62.5l-152 -113q10 -22 17 -53t7 -59q0 -103 -81.5 -165.5t-233.5 -72.5
l-13 74q65 8 104 30t54 51.5t15 71.5q0 26 -6 52v40l141 98q-25 -3 -54 -3q-189 0 -289 125.5t-100 362.5q0 148 56 262.5t157 176.5t233 62q82 0 151.5 -9.5t139.5 -30.5z" />
    <glyph glyph-name="egrave" unicode="&#xe8;" horiz-adv-x="999" 
d="M896 170q-64 -67 -117.5 -105t-117.5 -59.5t-141 -21.5q-206 0 -311 123.5t-105 364.5q0 149 53.5 263t152.5 176t228 62q101 0 172 -32t113.5 -87.5t66 -140t26.5 -220.5h-630v-18q0 -118 26.5 -198.5t87 -126t157.5 -45.5q82 0 147.5 30.5t130.5 99.5zM728 576
q-6 108 -27 176.5t-63 105t-110 36.5q-103 0 -164.5 -82.5t-72.5 -235.5h437zM438 1442l207 -320l-66 -52l-316 322v50h175z" />
    <glyph glyph-name="eacute" unicode="&#xe9;" horiz-adv-x="999" 
d="M896 170q-64 -67 -117.5 -105t-117.5 -59.5t-141 -21.5q-206 0 -311 123.5t-105 364.5q0 149 53.5 263t152.5 176t228 62q101 0 172 -32t113.5 -87.5t66 -140t26.5 -220.5h-630v-18q0 -118 26.5 -198.5t87 -126t157.5 -45.5q82 0 147.5 30.5t130.5 99.5zM728 576
q-6 108 -27 176.5t-63 105t-110 36.5q-103 0 -164.5 -82.5t-72.5 -235.5h437zM769 1442v-50l-317 -322l-65 52l207 320h175z" />
    <glyph glyph-name="ecircumflex" unicode="&#xea;" horiz-adv-x="999" 
d="M896 170q-64 -67 -117.5 -105t-117.5 -59.5t-141 -21.5q-206 0 -311 123.5t-105 364.5q0 149 53.5 263t152.5 176t228 62q101 0 172 -32t113.5 -87.5t66 -140t26.5 -220.5h-630v-18q0 -118 26.5 -198.5t87 -126t157.5 -45.5q82 0 147.5 30.5t130.5 99.5zM728 576
q-6 108 -27 176.5t-63 105t-110 36.5q-103 0 -164.5 -82.5t-72.5 -235.5h437zM588 1442l214 -315l-69 -57l-212 243h-11l-212 -243l-68 57l224 315h134z" />
    <glyph glyph-name="edieresis" unicode="&#xeb;" horiz-adv-x="999" 
d="M896 170q-64 -67 -117.5 -105t-117.5 -59.5t-141 -21.5q-206 0 -311 123.5t-105 364.5q0 149 53.5 263t152.5 176t228 62q101 0 172 -32t113.5 -87.5t66 -140t26.5 -220.5h-630v-18q0 -118 26.5 -198.5t87 -126t157.5 -45.5q82 0 147.5 30.5t130.5 99.5zM728 576
q-6 108 -27 176.5t-63 105t-110 36.5q-103 0 -164.5 -82.5t-72.5 -235.5h437zM769 1339v-176h-167v176h167zM430 1339v-176h-167v176h167z" />
    <glyph glyph-name="igrave" unicode="&#xec;" horiz-adv-x="569" 
d="M97 49q39 12 55.5 21t28 25t18 49t6.5 103v436q0 64 -2 103t-14 62.5t-36.5 35t-69.5 19.5v53l233 9h61v-715q0 -86 8 -119.5t30.5 -51t73.5 -30.5v-49h-392v49zM210 1442l207 -320l-66 -52l-316 322v50h175z" />
    <glyph glyph-name="iacute" unicode="&#xed;" horiz-adv-x="569" 
d="M97 49q39 12 55.5 21t28 25t18 49t6.5 103v436q0 64 -2 103t-14 62.5t-36.5 35t-69.5 19.5v53l233 9h61v-715q0 -86 8 -119.5t30.5 -51t73.5 -30.5v-49h-392v49zM544 1442v-50l-317 -322l-65 52l207 320h175z" />
    <glyph glyph-name="icircumflex" unicode="&#xee;" horiz-adv-x="569" 
d="M97 49q39 12 55.5 21t28 25t18 49t6.5 103v436q0 64 -2 103t-14 62.5t-36.5 35t-69.5 19.5v53l233 9h61v-715q0 -86 8 -119.5t30.5 -51t73.5 -30.5v-49h-392v49zM356 1442l214 -315l-69 -57l-212 243h-11l-212 -243l-68 57l224 315h134z" />
    <glyph glyph-name="idieresis" unicode="&#xef;" horiz-adv-x="569" 
d="M97 49q39 12 55.5 21t28 25t18 49t6.5 103v436q0 64 -2 103t-14 62.5t-36.5 35t-69.5 19.5v53l233 9h61v-715q0 -86 8 -119.5t30.5 -51t73.5 -30.5v-49h-392v49zM537 1339v-176h-167v176h167zM198 1339v-176h-167v176h167z" />
    <glyph glyph-name="eth" unicode="&#xf0;" horiz-adv-x="1086" 
d="M215 1100l269 149q-96 59 -247 101l22 85q192 -44 335 -122l201 113l44 -77l-162 -87q148 -108 224.5 -287t76.5 -421q0 -178 -46.5 -305t-147 -196t-255.5 -69q-205 0 -314.5 119t-109.5 340q0 153 52.5 263t150.5 168t230 58q70 0 126.5 -19.5t107.5 -61.5l12 7
q-62 211 -218 338l-307 -173zM293 465q0 -196 66.5 -299t189.5 -103q80 0 134.5 45t82.5 135t28 224q0 122 -29 209.5t-84 132t-134 44.5q-70 0 -118.5 -29t-79 -81t-43.5 -123.5t-13 -154.5zM1086 956z" />
    <glyph glyph-name="ntilde" unicode="&#xf1;" horiz-adv-x="1143" 
d="M1071 0h-394v49q39 12 56 21t28.5 25t18 49.5t6.5 101.5v262q0 70 -4 127t-13.5 93.5t-23 57t-32 35t-42.5 23t-63 8.5t-74 -15.5t-77 -53.5t-61 -75t-19 -85v-373q0 -86 8 -119.5t30.5 -51t73.5 -30.5v-49h-392v49q39 12 55.5 21t28 25t18 49t6.5 103v436q0 64 -2 103
t-14 62.5t-36.5 35t-69.5 19.5v53l234 9h61l-11 -163l14 -4q74 75 119.5 107t92 49.5t98.5 17.5q54 0 96.5 -12.5t75 -38.5t53.5 -64.5t31.5 -92.5t10.5 -137v-377q0 -69 4 -100t14 -48t29 -28.5t66 -24.5v-49zM826 1366l78 -34q-38 -82 -72.5 -126.5t-66 -61t-71.5 -16.5
q-27 0 -47 5.5t-39.5 16t-60.5 38.5q-27 18 -42.5 28t-32.5 16.5t-36 6.5q-26 0 -43.5 -10t-35.5 -35t-37 -66l-78 34q48 96 78 133.5t61.5 54t75.5 16.5q24 0 43.5 -5.5t36 -14.5t56.5 -36q29 -20 46 -31t35 -17.5t41 -6.5q32 0 57 24.5t54 86.5z" />
    <glyph glyph-name="ograve" unicode="&#xf2;" horiz-adv-x="1087" 
d="M532 -16q-208 0 -317.5 122.5t-109.5 362.5q0 165 57.5 279t157.5 169.5t228 55.5q214 0 324 -124.5t110 -357.5q0 -166 -55 -280t-156 -170.5t-239 -56.5zM294 490q0 -206 65.5 -316.5t187.5 -110.5q67 0 114 32.5t76.5 87.5t42.5 127.5t13 151.5q0 147 -32.5 244
t-88.5 142.5t-128 45.5q-121 0 -185.5 -105t-64.5 -299zM466 1442l207 -320l-66 -52l-316 322v50h175z" />
    <glyph glyph-name="oacute" unicode="&#xf3;" horiz-adv-x="1087" 
d="M532 -16q-208 0 -317.5 122.5t-109.5 362.5q0 165 57.5 279t157.5 169.5t228 55.5q214 0 324 -124.5t110 -357.5q0 -166 -55 -280t-156 -170.5t-239 -56.5zM294 490q0 -206 65.5 -316.5t187.5 -110.5q67 0 114 32.5t76.5 87.5t42.5 127.5t13 151.5q0 147 -32.5 244
t-88.5 142.5t-128 45.5q-121 0 -185.5 -105t-64.5 -299zM796 1442v-50l-317 -322l-65 52l207 320h175z" />
    <glyph glyph-name="ocircumflex" unicode="&#xf4;" horiz-adv-x="1087" 
d="M532 -16q-208 0 -317.5 122.5t-109.5 362.5q0 165 57.5 279t157.5 169.5t228 55.5q214 0 324 -124.5t110 -357.5q0 -166 -55 -280t-156 -170.5t-239 -56.5zM294 490q0 -206 65.5 -316.5t187.5 -110.5q67 0 114 32.5t76.5 87.5t42.5 127.5t13 151.5q0 147 -32.5 244
t-88.5 142.5t-128 45.5q-121 0 -185.5 -105t-64.5 -299zM616 1442l214 -315l-69 -57l-212 243h-11l-212 -243l-68 57l224 315h134z" />
    <glyph glyph-name="otilde" unicode="&#xf5;" horiz-adv-x="1087" 
d="M532 -16q-208 0 -317.5 122.5t-109.5 362.5q0 165 57.5 279t157.5 169.5t228 55.5q214 0 324 -124.5t110 -357.5q0 -166 -55 -280t-156 -170.5t-239 -56.5zM294 490q0 -206 65.5 -316.5t187.5 -110.5q67 0 114 32.5t76.5 87.5t42.5 127.5t13 151.5q0 147 -32.5 244
t-88.5 142.5t-128 45.5q-121 0 -185.5 -105t-64.5 -299zM798 1366l78 -34q-38 -82 -72.5 -126.5t-66 -61t-71.5 -16.5q-27 0 -47 5.5t-39.5 16t-60.5 38.5q-27 18 -42.5 28t-32.5 16.5t-36 6.5q-26 0 -43.5 -10t-35.5 -35t-37 -66l-78 34q48 96 78 133.5t61.5 54t75.5 16.5
q24 0 43.5 -5.5t36 -14.5t56.5 -36q29 -20 46 -31t35 -17.5t41 -6.5q32 0 57 24.5t54 86.5z" />
    <glyph glyph-name="odieresis" unicode="&#xf6;" horiz-adv-x="1087" 
d="M532 -16q-208 0 -317.5 122.5t-109.5 362.5q0 165 57.5 279t157.5 169.5t228 55.5q214 0 324 -124.5t110 -357.5q0 -166 -55 -280t-156 -170.5t-239 -56.5zM294 490q0 -206 65.5 -316.5t187.5 -110.5q67 0 114 32.5t76.5 87.5t42.5 127.5t13 151.5q0 147 -32.5 244
t-88.5 142.5t-128 45.5q-121 0 -185.5 -105t-64.5 -299zM797 1339v-176h-167v176h167zM458 1339v-176h-167v176h167z" />
    <glyph glyph-name="divide" unicode="&#xf7;" horiz-adv-x="1134" 
d="M567 1040q29 0 53.5 -13.5t39 -39.5t14.5 -59t-14.5 -59t-39 -39.5t-53.5 -13.5t-53.5 13.5t-39 39.5t-14.5 59t14.5 59t39 39.5t53.5 13.5zM127 515v139h880v-139h-880zM567 353q29 0 53.5 -13.5t39 -39.5t14.5 -59t-14.5 -59t-39 -39.5t-53.5 -13.5t-53.5 13.5
t-39 39.5t-14.5 59t14.5 59t39 39.5t53.5 13.5z" />
    <glyph glyph-name="oslash" unicode="&#xf8;" horiz-adv-x="1087" 
d="M763 929l102 163h131l-142 -226q128 -125 128 -375q0 -166 -55 -280t-156 -170.5t-239 -56.5q-120 0 -209 42l-102 -161h-130l141 222q-127 123 -127 382q0 165 57.5 279t157.5 169.5t228 55.5q127 0 215 -44zM330 227l366 596q-31 36 -70 53t-83 17q-121 0 -186 -104.5
t-65 -298.5q0 -150 38 -263zM757 728l-368 -597q60 -68 158 -68q67 0 114 32.5t76.5 87.5t43 127.5t13.5 151.5q0 87 -9 149t-28 117z" />
    <glyph glyph-name="ugrave" unicode="&#xf9;" horiz-adv-x="1131" 
d="M73 956h285v-509q0 -117 9 -178t27 -92t51 -52t91 -21q38 0 73 15t78 52.5t61.5 74.5t18.5 86v375q0 57 -3 86t-10 46.5t-16.5 28.5t-27 20t-56.5 19v49h285v-683q0 -77 3 -111t13 -54t31 -32.5t75 -23.5v-52l-229 -10h-61l6 164l-15 4q-83 -90 -158.5 -132t-151.5 -42
q-91 0 -150 36t-88 107.5t-29 201.5v378q0 84 -6.5 115.5t-25 50t-80.5 34.5v49zM473 1442l207 -320l-66 -52l-316 322v50h175z" />
    <glyph glyph-name="uacute" unicode="&#xfa;" horiz-adv-x="1131" 
d="M73 956h285v-509q0 -117 9 -178t27 -92t51 -52t91 -21q38 0 73 15t78 52.5t61.5 74.5t18.5 86v375q0 57 -3 86t-10 46.5t-16.5 28.5t-27 20t-56.5 19v49h285v-683q0 -77 3 -111t13 -54t31 -32.5t75 -23.5v-52l-229 -10h-61l6 164l-15 4q-83 -90 -158.5 -132t-151.5 -42
q-91 0 -150 36t-88 107.5t-29 201.5v378q0 84 -6.5 115.5t-25 50t-80.5 34.5v49zM818 1442v-50l-317 -322l-65 52l207 320h175z" />
    <glyph glyph-name="ucircumflex" unicode="&#xfb;" horiz-adv-x="1131" 
d="M73 956h285v-509q0 -117 9 -178t27 -92t51 -52t91 -21q38 0 73 15t78 52.5t61.5 74.5t18.5 86v375q0 57 -3 86t-10 46.5t-16.5 28.5t-27 20t-56.5 19v49h285v-683q0 -77 3 -111t13 -54t31 -32.5t75 -23.5v-52l-229 -10h-61l6 164l-15 4q-83 -90 -158.5 -132t-151.5 -42
q-91 0 -150 36t-88 107.5t-29 201.5v378q0 84 -6.5 115.5t-25 50t-80.5 34.5v49zM637 1442l214 -315l-69 -57l-212 243h-11l-212 -243l-68 57l224 315h134z" />
    <glyph glyph-name="udieresis" unicode="&#xfc;" horiz-adv-x="1131" 
d="M73 956h285v-509q0 -117 9 -178t27 -92t51 -52t91 -21q38 0 73 15t78 52.5t61.5 74.5t18.5 86v375q0 57 -3 86t-10 46.5t-16.5 28.5t-27 20t-56.5 19v49h285v-683q0 -77 3 -111t13 -54t31 -32.5t75 -23.5v-52l-229 -10h-61l6 164l-15 4q-83 -90 -158.5 -132t-151.5 -42
q-91 0 -150 36t-88 107.5t-29 201.5v378q0 84 -6.5 115.5t-25 50t-80.5 34.5v49zM818 1339v-176h-167v176h167zM479 1339v-176h-167v176h167z" />
    <glyph glyph-name="yacute" unicode="&#xfd;" horiz-adv-x="1032" 
d="M520 -82q-55 -124 -107 -201t-114.5 -116t-148.5 -39q-55 0 -124 13v198h89q12 -41 30 -57t52 -16q30 0 53.5 11.5t49 39.5t60 86t77.5 147l-280 753q-27 73 -43.5 102t-35.5 44t-58 24v49h407v-49q-47 -11 -66 -21.5t-28 -27t-9 -42.5q0 -27 6.5 -56t20.5 -68l178 -501
l200 480q17 40 26.5 73.5t9.5 62.5q0 43 -23.5 65t-81.5 35v49h374v-49q-39 -8 -60 -24.5t-42 -52t-50 -99.5zM787 1442v-50l-317 -322l-65 52l207 320h175z" />
    <glyph glyph-name="thorn" unicode="&#xfe;" horiz-adv-x="1121" 
d="M350 1431v-632l4 -1q62 63 98.5 92t74 47.5t73 26.5t75.5 8q165 0 253.5 -123.5t88.5 -361.5q0 -162 -49.5 -275t-145 -170.5t-228.5 -57.5q-131 0 -244 41v-206q0 -65 4.5 -97t16 -50.5t33 -30.5t69.5 -22v-49h-408v49q36 10 58.5 20.5t34.5 31t16 55.5t4 93v1268
q0 96 -1.5 134t-8 64.5t-18 41.5t-31 24t-70.5 18v52l241 10h60zM350 360q0 -83 8.5 -130.5t26.5 -76.5t48 -50.5t69.5 -30.5t86.5 -9q117 0 178.5 103t61.5 294q0 196 -56.5 294t-172.5 98q-56 0 -96.5 -17.5t-80.5 -56.5t-56.5 -75.5t-16.5 -78.5v-264z" />
    <glyph glyph-name="ydieresis" unicode="&#xff;" horiz-adv-x="1032" 
d="M520 -82q-55 -124 -107 -201t-114.5 -116t-148.5 -39q-55 0 -124 13v198h89q12 -41 30 -57t52 -16q30 0 53.5 11.5t49 39.5t60 86t77.5 147l-280 753q-27 73 -43.5 102t-35.5 44t-58 24v49h407v-49q-47 -11 -66 -21.5t-28 -27t-9 -42.5q0 -27 6.5 -56t20.5 -68l178 -501
l200 480q17 40 26.5 73.5t9.5 62.5q0 43 -23.5 65t-81.5 35v49h374v-49q-39 -8 -60 -24.5t-42 -52t-50 -99.5zM772 1339v-176h-167v176h167zM433 1339v-176h-167v176h167z" />
    <glyph glyph-name="Amacron" unicode="&#x100;" horiz-adv-x="1276" 
d="M796 0v49q50 10 74.5 22t36.5 33.5t12 57.5q0 34 -8 73.5t-23 88.5l-37 129h-466l-34 -98q-26 -74 -34 -112t-8 -69q0 -60 30.5 -88t93.5 -37v-49h-427v49q56 9 97.5 65t80.5 160l417 1107h158l340 -1115q24 -78 42.5 -119t44.5 -64t71 -34v-49h-461zM412 540h418
l-190 645zM954 1538h-558v125h558v-125z" />
    <glyph glyph-name="amacron" unicode="&#x101;" horiz-adv-x="1000" 
d="M675 143l-15 4q-87 -89 -163.5 -126t-162.5 -37q-76 0 -134 29.5t-89 83t-31 123.5q0 146 144.5 225.5t433.5 92.5v65q0 104 -20 164t-63 88t-115 28q-78 0 -125.5 -41t-71.5 -123h-131v130q96 50 160 73.5t128 37t130 13.5q99 0 159 -31.5t90 -96.5t30 -196v-348
q0 -74 1 -104.5t6 -56.5t15 -41.5t29.5 -26.5t63.5 -23v-49h-274zM658 456q-203 -2 -304 -54t-101 -157q0 -57 23 -90t58 -45.5t83 -12.5q68 0 123.5 33t86.5 84t31 101v141zM754 1188h-528v125h528v-125z" />
    <glyph glyph-name="Abreve" unicode="&#x102;" horiz-adv-x="1276" 
d="M796 0v49q50 10 74.5 22t36.5 33.5t12 57.5q0 34 -8 73.5t-23 88.5l-37 129h-466l-34 -98q-26 -74 -34 -112t-8 -69q0 -60 30.5 -88t93.5 -37v-49h-427v49q56 9 97.5 65t80.5 160l417 1107h158l340 -1115q24 -78 42.5 -119t44.5 -64t71 -34v-49h-461zM412 540h418
l-190 645zM987 1761q-26 -137 -105 -204t-215 -67q-127 0 -202 67t-102 204l77 24q25 -65 55.5 -101t69.5 -50.5t106 -14.5q66 0 107.5 14.5t74 50.5t57.5 101z" />
    <glyph glyph-name="abreve" unicode="&#x103;" horiz-adv-x="1000" 
d="M675 143l-15 4q-87 -89 -163.5 -126t-162.5 -37q-76 0 -134 29.5t-89 83t-31 123.5q0 146 144.5 225.5t433.5 92.5v65q0 104 -20 164t-63 88t-115 28q-78 0 -125.5 -41t-71.5 -123h-131v130q96 50 160 73.5t128 37t130 13.5q99 0 159 -31.5t90 -96.5t30 -196v-348
q0 -74 1 -104.5t6 -56.5t15 -41.5t29.5 -26.5t63.5 -23v-49h-274zM658 456q-203 -2 -304 -54t-101 -157q0 -57 23 -90t58 -45.5t83 -12.5q68 0 123.5 33t86.5 84t31 101v141zM792 1387q-26 -135 -101.5 -204t-208.5 -69q-124 0 -196 68.5t-98 204.5l77 24q25 -66 56.5 -103
t69.5 -51t95 -14q56 0 97 14.5t74.5 51.5t57.5 102z" />
    <glyph glyph-name="Aogonek" unicode="&#x104;" horiz-adv-x="1276" 
d="M1130 0q-124 -113 -124 -230q0 -56 25.5 -83t76.5 -27q33 0 57.5 9.5t46.5 24.5l31 -68q-37 -25 -80 -40.5t-98 -15.5q-39 0 -74.5 9.5t-62.5 30.5t-43.5 54.5t-16.5 80.5q0 67 46.5 133t128.5 122h-247v49q50 10 74.5 22t36.5 33.5t12 57.5q0 34 -8 73.5t-23 88.5
l-37 129h-466l-34 -98q-26 -74 -34 -112t-8 -69q0 -60 30.5 -88t93.5 -37v-49h-427v49q56 9 97.5 65t80.5 160l417 1107h158l340 -1115q24 -78 42.5 -119t44.5 -64t71 -34v-49h-127zM412 540h418l-190 645z" />
    <glyph glyph-name="aogonek" unicode="&#x105;" horiz-adv-x="1000" 
d="M675 143l-15 4q-87 -89 -163.5 -126t-162.5 -37q-76 0 -134 29.5t-89 83t-31 123.5q0 146 144.5 225.5t433.5 92.5v65q0 104 -20 164t-63 88t-115 28q-78 0 -125.5 -41t-71.5 -123h-131v130q96 50 160 73.5t128 37t130 13.5q99 0 159 -31.5t90 -96.5t30 -196v-348
q0 -74 1 -104.5t6 -56.5t15 -41.5t29.5 -26.5t63.5 -23v-49h-107q-124 -113 -124 -230q0 -56 25.5 -83t76.5 -27q33 0 57.5 9.5t46.5 24.5l31 -68q-37 -25 -80 -40.5t-98 -15.5q-39 0 -74.5 9.5t-62.5 30.5t-43.5 54.5t-16.5 80.5q0 67 46.5 133t128.5 122h-80zM658 456
q-203 -2 -304 -54t-101 -157q0 -57 23 -90t58 -45.5t83 -12.5q68 0 123.5 33t86.5 84t31 101v141z" />
    <glyph glyph-name="Cacute" unicode="&#x106;" horiz-adv-x="1152" 
d="M1042 1336v-277h-99q-24 87 -61 138.5t-86 73.5t-118 22q-103 0 -183.5 -68.5t-126.5 -206t-46 -332.5q0 -196 38 -334.5t112 -209t182 -70.5q82 0 134 23.5t87.5 74.5t67.5 150h99v-286q-94 -25 -192.5 -37.5t-216.5 -12.5q-254 0 -384 172t-130 513q0 214 67.5 375
t198.5 249t313 88q91 0 168 -9.5t176 -35.5zM923 1782v-50l-382 -264l-56 57l241 257h197z" />
    <glyph glyph-name="cacute" unicode="&#x107;" horiz-adv-x="903" 
d="M842 933v-209h-127q-17 65 -42 102.5t-58 52.5t-82 15q-70 0 -124 -45t-85.5 -137t-31.5 -225q0 -85 12 -155.5t41 -120.5t77 -78t119 -28q69 0 128.5 27t123.5 95l57 -66q-51 -56 -90 -86.5t-83.5 -51t-88 -30t-94.5 -9.5q-189 0 -289 125.5t-100 362.5q0 148 56 262.5
t157 176.5t233 62q82 0 151.5 -9.5t139.5 -30.5zM757 1442v-50l-317 -322l-65 52l207 320h175z" />
    <glyph glyph-name="Ccircumflex" unicode="&#x108;" horiz-adv-x="1152" 
d="M1042 1336v-277h-99q-24 87 -61 138.5t-86 73.5t-118 22q-103 0 -183.5 -68.5t-126.5 -206t-46 -332.5q0 -196 38 -334.5t112 -209t182 -70.5q82 0 134 23.5t87.5 74.5t67.5 150h99v-286q-94 -25 -192.5 -37.5t-216.5 -12.5q-254 0 -384 172t-130 513q0 214 67.5 375
t198.5 249t313 88q91 0 168 -9.5t176 -35.5zM715 1780l228 -254l-57 -58l-238 185h-11l-240 -185l-56 58l240 254h134z" />
    <glyph glyph-name="ccircumflex" unicode="&#x109;" horiz-adv-x="903" 
d="M842 933v-209h-127q-17 65 -42 102.5t-58 52.5t-82 15q-70 0 -124 -45t-85.5 -137t-31.5 -225q0 -85 12 -155.5t41 -120.5t77 -78t119 -28q69 0 128.5 27t123.5 95l57 -66q-51 -56 -90 -86.5t-83.5 -51t-88 -30t-94.5 -9.5q-189 0 -289 125.5t-100 362.5q0 148 56 262.5
t157 176.5t233 62q82 0 151.5 -9.5t139.5 -30.5zM576 1442l214 -315l-69 -57l-212 243h-11l-212 -243l-68 57l224 315h134z" />
    <glyph glyph-name="Cdotaccent" unicode="&#x10a;" horiz-adv-x="1152" 
d="M1042 1336v-277h-99q-24 87 -61 138.5t-86 73.5t-118 22q-103 0 -183.5 -68.5t-126.5 -206t-46 -332.5q0 -196 38 -334.5t112 -209t182 -70.5q82 0 134 23.5t87.5 74.5t67.5 150h99v-286q-94 -25 -192.5 -37.5t-216.5 -12.5q-254 0 -384 172t-130 513q0 214 67.5 375
t198.5 249t313 88q91 0 168 -9.5t176 -35.5zM734 1699v-194h-184v194h184z" />
    <glyph glyph-name="cdotaccent" unicode="&#x10b;" horiz-adv-x="903" 
d="M842 933v-209h-127q-17 65 -42 102.5t-58 52.5t-82 15q-70 0 -124 -45t-85.5 -137t-31.5 -225q0 -85 12 -155.5t41 -120.5t77 -78t119 -28q69 0 128.5 27t123.5 95l57 -66q-51 -56 -90 -86.5t-83.5 -51t-88 -30t-94.5 -9.5q-189 0 -289 125.5t-100 362.5q0 148 56 262.5
t157 176.5t233 62q82 0 151.5 -9.5t139.5 -30.5zM596 1348v-194h-184v194h184z" />
    <glyph glyph-name="Ccaron" unicode="&#x10c;" horiz-adv-x="1152" 
d="M1042 1336v-277h-99q-24 87 -61 138.5t-86 73.5t-118 22q-103 0 -183.5 -68.5t-126.5 -206t-46 -332.5q0 -196 38 -334.5t112 -209t182 -70.5q82 0 134 23.5t87.5 74.5t67.5 150h99v-286q-94 -25 -192.5 -37.5t-216.5 -12.5q-254 0 -384 172t-130 513q0 214 67.5 375
t198.5 249t313 88q91 0 168 -9.5t176 -35.5zM569 1468l-228 254l57 58l238 -185h11l240 185l56 -58l-240 -254h-134z" />
    <glyph glyph-name="ccaron" unicode="&#x10d;" horiz-adv-x="903" 
d="M842 933v-209h-127q-17 65 -42 102.5t-58 52.5t-82 15q-70 0 -124 -45t-85.5 -137t-31.5 -225q0 -85 12 -155.5t41 -120.5t77 -78t119 -28q69 0 128.5 27t123.5 95l57 -66q-51 -56 -90 -86.5t-83.5 -51t-88 -30t-94.5 -9.5q-189 0 -289 125.5t-100 362.5q0 148 56 262.5
t157 176.5t233 62q82 0 151.5 -9.5t139.5 -30.5zM431 1084l-213 315l68 57l212 -243h11l212 243l69 -57l-225 -315h-134z" />
    <glyph glyph-name="Dcaron" unicode="&#x10e;" horiz-adv-x="1355" 
d="M120 0v49q46 12 66 23t31 28t16 49t5 101v865q0 70 -5 101.5t-16.5 48.5t-30.5 27.5t-66 23.5v49h438q189 0 309.5 -41.5t203.5 -122.5t124 -201.5t41 -287.5q0 -169 -38.5 -297.5t-112.5 -215.5q-64 -76 -157 -125q-77 -40 -178 -57t-268 -17h-362zM425 93q40 -4 118 -4
q84 0 150 14t120 44t97 83.5t70 123t39.5 154.5t12.5 186q0 203 -58.5 333.5t-165 190.5t-254.5 60q-68 0 -129 -4v-1181zM605 1468l-228 254l57 58l238 -185h11l240 185l56 -58l-240 -254h-134z" />
    <glyph glyph-name="dcaron" unicode="&#x10f;" horiz-adv-x="1388" 
d="M772 1087q0 96 -1.5 134t-8 64.5t-18 41.5t-31 24t-70.5 18v52l242 10h59v-1158q0 -78 3 -111.5t13 -53.5t31.5 -32.5t75.5 -23.5v-52l-236 -10h-60l12 164l-15 4q-63 -67 -109.5 -100.5t-99 -53.5t-112.5 -20q-164 0 -253 124.5t-89 359.5q0 164 58 278.5t156.5 170.5
t221.5 56q66 0 120 -10.5t111 -34.5v159zM772 593q0 78 -7 125t-23.5 79t-44.5 54t-61.5 32t-80.5 10q-128 0 -195 -102.5t-67 -294.5t55 -292t167 -100q44 0 73 7.5t57 24t57 45.5t42.5 53t20.5 55t7 80v224zM1315 1431q23 -66 23 -129q0 -57 -17.5 -102.5t-55.5 -92
t-121 -121.5l-55 54q47 58 66 113t19 128q0 32 -2.5 60t-13.5 90h157z" />
    <glyph glyph-name="Dcroat" unicode="&#x110;" horiz-adv-x="1361" 
d="M50 761h194v354q0 70 -5 101.5t-16.5 48.5t-30.5 27.5t-66 23.5v49h437q187 0 307.5 -41t204.5 -121.5t125.5 -201.5t41.5 -289q0 -169 -38.5 -297.5t-112.5 -215.5q-64 -76 -157 -125q-77 -40 -178 -57t-268 -17h-362v49q46 12 66 23t31 28t16 49t5 101v419h-194v92z
M431 93q40 -4 118 -4q170 0 271 57.5t159.5 189t58.5 358.5q0 203 -58.5 333.5t-165 190.5t-254.5 60q-68 0 -129 -4v-513h320v-92h-320v-576z" />
    <glyph glyph-name="dcroat" unicode="&#x111;" horiz-adv-x="1136" 
d="M944 1130v-857q0 -78 3 -111.5t13 -53.5t31.5 -32.5t75.5 -23.5v-52l-236 -10h-60l12 164l-15 4q-63 -67 -109.5 -100.5t-99 -53.5t-112.5 -20q-164 0 -253 124.5t-89 359.5q0 164 58 278.5t156.5 170.5t221.5 56q66 0 120 -10.5t111 -34.5v202h-341v88h341
q-1 45 -8 72.5t-22 43.5t-39.5 23.5t-59.5 11.5v52l242 10h59v-213h141v-88h-141zM772 593q0 78 -7 125t-23.5 79t-44.5 54t-61.5 32t-80.5 10q-128 0 -195 -102.5t-67 -294.5t55 -292t167 -100q44 0 73 7.5t57 24t57 45.5t42.5 53t20.5 55t7 80v224z" />
    <glyph glyph-name="Emacron" unicode="&#x112;" horiz-adv-x="1178" 
d="M1056 1365v-302h-98q-15 49 -31 86t-33 62t-37.5 40t-48.5 20.5t-67 5.5h-316v-524h214q44 0 69 12.5t41.5 42.5t31.5 94h94v-384h-94q-14 60 -31 90.5t-40.5 43.5t-70.5 13h-214v-577h311q49 0 79.5 8.5t52.5 29t39 53.5t28.5 68.5t31.5 103.5h99l-19 -351h-926v49
q62 16 83 35.5t27.5 55.5t6.5 110v865q0 69 -5 100.5t-16.5 49t-30.5 28t-65 23.5v49h935zM888 1538h-558v125h558v-125z" />
    <glyph glyph-name="emacron" unicode="&#x113;" horiz-adv-x="999" 
d="M896 170q-64 -67 -117.5 -105t-117.5 -59.5t-141 -21.5q-206 0 -311 123.5t-105 364.5q0 149 53.5 263t152.5 176t228 62q101 0 172 -32t113.5 -87.5t66 -140t26.5 -220.5h-630v-18q0 -118 26.5 -198.5t87 -126t157.5 -45.5q82 0 147.5 30.5t130.5 99.5zM728 576
q-6 108 -27 176.5t-63 105t-110 36.5q-103 0 -164.5 -82.5t-72.5 -235.5h437zM780 1188h-528v125h528v-125z" />
    <glyph glyph-name="Ebreve" unicode="&#x114;" horiz-adv-x="1178" 
d="M1056 1365v-302h-98q-15 49 -31 86t-33 62t-37.5 40t-48.5 20.5t-67 5.5h-316v-524h214q44 0 69 12.5t41.5 42.5t31.5 94h94v-384h-94q-14 60 -31 90.5t-40.5 43.5t-70.5 13h-214v-577h311q49 0 79.5 8.5t52.5 29t39 53.5t28.5 68.5t31.5 103.5h99l-19 -351h-926v49
q62 16 83 35.5t27.5 55.5t6.5 110v865q0 69 -5 100.5t-16.5 49t-30.5 28t-65 23.5v49h935zM921 1761q-26 -137 -105 -204t-215 -67q-127 0 -202 67t-102 204l77 24q25 -65 55.5 -101t69.5 -50.5t106 -14.5q66 0 107.5 14.5t74 50.5t57.5 101z" />
    <glyph glyph-name="ebreve" unicode="&#x115;" horiz-adv-x="999" 
d="M896 170q-64 -67 -117.5 -105t-117.5 -59.5t-141 -21.5q-206 0 -311 123.5t-105 364.5q0 149 53.5 263t152.5 176t228 62q101 0 172 -32t113.5 -87.5t66 -140t26.5 -220.5h-630v-18q0 -118 26.5 -198.5t87 -126t157.5 -45.5q82 0 147.5 30.5t130.5 99.5zM728 576
q-6 108 -27 176.5t-63 105t-110 36.5q-103 0 -164.5 -82.5t-72.5 -235.5h437zM818 1387q-26 -135 -101.5 -204t-208.5 -69q-124 0 -196 68.5t-98 204.5l77 24q25 -66 56.5 -103t69.5 -51t95 -14q56 0 97 14.5t74.5 51.5t57.5 102z" />
    <glyph glyph-name="Edotaccent" unicode="&#x116;" horiz-adv-x="1178" 
d="M1056 1365v-302h-98q-15 49 -31 86t-33 62t-37.5 40t-48.5 20.5t-67 5.5h-316v-524h214q44 0 69 12.5t41.5 42.5t31.5 94h94v-384h-94q-14 60 -31 90.5t-40.5 43.5t-70.5 13h-214v-577h311q49 0 79.5 8.5t52.5 29t39 53.5t28.5 68.5t31.5 103.5h99l-19 -351h-926v49
q62 16 83 35.5t27.5 55.5t6.5 110v865q0 69 -5 100.5t-16.5 49t-30.5 28t-65 23.5v49h935zM701 1699v-194h-184v194h184z" />
    <glyph glyph-name="edotaccent" unicode="&#x117;" horiz-adv-x="999" 
d="M896 170q-64 -67 -117.5 -105t-117.5 -59.5t-141 -21.5q-206 0 -311 123.5t-105 364.5q0 149 53.5 263t152.5 176t228 62q101 0 172 -32t113.5 -87.5t66 -140t26.5 -220.5h-630v-18q0 -118 26.5 -198.5t87 -126t157.5 -45.5q82 0 147.5 30.5t130.5 99.5zM728 576
q-6 108 -27 176.5t-63 105t-110 36.5q-103 0 -164.5 -82.5t-72.5 -235.5h437zM608 1348v-194h-184v194h184z" />
    <glyph glyph-name="Eogonek" unicode="&#x118;" horiz-adv-x="1178" 
d="M1056 1365v-302h-98q-15 49 -31 86t-33 62t-37.5 40t-48.5 20.5t-67 5.5h-316v-524h214q44 0 69 12.5t41.5 42.5t31.5 94h94v-384h-94q-14 60 -31 90.5t-40.5 43.5t-70.5 13h-214v-577h311q49 0 79.5 8.5t52.5 29t39 53.5t28.5 68.5t31.5 103.5h99l-19 -351h-93
q-124 -113 -124 -230q0 -56 25.5 -83t76.5 -27q33 0 57.5 9.5t46.5 24.5l31 -68q-37 -25 -80 -40.5t-98 -15.5q-39 0 -74.5 9.5t-62.5 30.5t-43.5 54.5t-16.5 80.5q0 67 46.5 133t128.5 122h-746v49q62 16 83 35.5t27.5 55.5t6.5 110v865q0 69 -5 100.5t-16.5 49t-30.5 28
t-65 23.5v49h935z" />
    <glyph glyph-name="eogonek" unicode="&#x119;" horiz-adv-x="999" 
d="M286 493v-18q0 -118 26.5 -198.5t87 -126t157.5 -45.5q82 0 147.5 30.5t130.5 99.5l61 -65q-38 -41 -98 -90q-89 -83 -128 -156t-39 -146q0 -61 24.5 -89.5t77.5 -28.5q33 0 57.5 9.5t46.5 24.5l31 -68q-37 -25 -80 -40.5t-98 -15.5q-39 0 -74.5 9.5t-62.5 30.5
t-43.5 54.5t-16.5 80.5q0 64 36 125.5t113 127.5l-1 4q-57 -18 -121 -18q-206 0 -311 123.5t-105 364.5q0 149 53.5 263t152.5 176t228 62q101 0 172 -32t113.5 -87.5t66 -140t26.5 -220.5h-630zM728 576q-6 108 -27 176.5t-63 105t-110 36.5q-103 0 -164.5 -82.5
t-72.5 -235.5h437z" />
    <glyph glyph-name="Ecaron" unicode="&#x11a;" horiz-adv-x="1178" 
d="M1056 1365v-302h-98q-15 49 -31 86t-33 62t-37.5 40t-48.5 20.5t-67 5.5h-316v-524h214q44 0 69 12.5t41.5 42.5t31.5 94h94v-384h-94q-14 60 -31 90.5t-40.5 43.5t-70.5 13h-214v-577h311q49 0 79.5 8.5t52.5 29t39 53.5t28.5 68.5t31.5 103.5h99l-19 -351h-926v49
q62 16 83 35.5t27.5 55.5t6.5 110v865q0 69 -5 100.5t-16.5 49t-30.5 28t-65 23.5v49h935zM536 1468l-228 254l57 58l238 -185h11l240 185l56 -58l-240 -254h-134z" />
    <glyph glyph-name="ecaron" unicode="&#x11b;" horiz-adv-x="999" 
d="M896 170q-64 -67 -117.5 -105t-117.5 -59.5t-141 -21.5q-206 0 -311 123.5t-105 364.5q0 149 53.5 263t152.5 176t228 62q101 0 172 -32t113.5 -87.5t66 -140t26.5 -220.5h-630v-18q0 -118 26.5 -198.5t87 -126t157.5 -45.5q82 0 147.5 30.5t130.5 99.5zM728 576
q-6 108 -27 176.5t-63 105t-110 36.5q-103 0 -164.5 -82.5t-72.5 -235.5h437zM443 1084l-213 315l68 57l212 -243h11l212 243l69 -57l-225 -315h-134z" />
    <glyph glyph-name="Gcircumflex" unicode="&#x11c;" horiz-adv-x="1251" 
d="M1078 5l-78 -21l-73 78q-65 -40 -136 -59t-163 -19q-253 0 -381 173.5t-128 515.5q0 213 70 374t201 247.5t308 86.5q93 0 179 -10.5t191 -36.5v-275h-99q-27 90 -64 140.5t-88.5 72t-130.5 21.5q-109 0 -191 -70t-127.5 -206.5t-45.5 -329.5q0 -196 38.5 -335
t114.5 -209.5t187 -70.5q118 0 175 51.5t57 158.5v60q0 90 -9.5 130t-33.5 62t-79 36v49h404v-49q-36 -12 -54 -27.5t-27.5 -38.5t-13 -56.5t-3.5 -95.5v-347zM719 1780l228 -254l-57 -58l-238 185h-11l-240 -185l-56 58l240 254h134z" />
    <glyph glyph-name="gcircumflex" unicode="&#x11d;" horiz-adv-x="1012" 
d="M994 855l-185 7l-9 -11q31 -31 49 -84.5t18 -115.5q0 -163 -100.5 -251.5t-285.5 -88.5q-83 0 -143 21q-76 -58 -76 -114q0 -37 14.5 -56t48 -27t101.5 -8h240q106 0 173 -33t95.5 -88.5t28.5 -129.5q0 -94 -54 -167.5t-156 -114.5t-238 -41q-101 0 -184.5 12t-143 40.5
t-92 75t-32.5 116.5q0 63 42 114.5t119 90.5q-47 19 -74 56t-27 87q0 57 32 104.5t113 108.5q-72 42 -109.5 114t-37.5 164q0 86 28.5 149.5t79 105t119.5 62t149 20.5q72 0 143 -17h354v-101zM300 652q0 -125 51 -193t147 -68q51 0 87 19.5t58.5 53.5t33 78.5t10.5 93.5
q0 88 -25 147t-68 86.5t-99 27.5q-95 0 -145 -63t-50 -182zM325 -16q-51 -38 -76.5 -80.5t-25.5 -96.5q0 -90 71.5 -132.5t218.5 -42.5q90 0 154.5 24t98.5 69t34 105q0 28 -7 54.5t-26.5 47.5t-55.5 33.5t-94 12.5h-149q-81 0 -143 6zM578 1442l214 -315l-69 -57l-212 243
h-11l-212 -243l-68 57l224 315h134z" />
    <glyph glyph-name="Gbreve" unicode="&#x11e;" horiz-adv-x="1251" 
d="M1078 5l-78 -21l-73 78q-65 -40 -136 -59t-163 -19q-253 0 -381 173.5t-128 515.5q0 213 70 374t201 247.5t308 86.5q93 0 179 -10.5t191 -36.5v-275h-99q-27 90 -64 140.5t-88.5 72t-130.5 21.5q-109 0 -191 -70t-127.5 -206.5t-45.5 -329.5q0 -196 38.5 -335
t114.5 -209.5t187 -70.5q118 0 175 51.5t57 158.5v60q0 90 -9.5 130t-33.5 62t-79 36v49h404v-49q-36 -12 -54 -27.5t-27.5 -38.5t-13 -56.5t-3.5 -95.5v-347zM959 1761q-26 -137 -105 -204t-215 -67q-127 0 -202 67t-102 204l77 24q25 -65 55.5 -101t69.5 -50.5t106 -14.5
q66 0 107.5 14.5t74 50.5t57.5 101z" />
    <glyph glyph-name="gbreve" unicode="&#x11f;" horiz-adv-x="1012" 
d="M994 855l-185 7l-9 -11q31 -31 49 -84.5t18 -115.5q0 -163 -100.5 -251.5t-285.5 -88.5q-83 0 -143 21q-76 -58 -76 -114q0 -37 14.5 -56t48 -27t101.5 -8h240q106 0 173 -33t95.5 -88.5t28.5 -129.5q0 -94 -54 -167.5t-156 -114.5t-238 -41q-101 0 -184.5 12t-143 40.5
t-92 75t-32.5 116.5q0 63 42 114.5t119 90.5q-47 19 -74 56t-27 87q0 57 32 104.5t113 108.5q-72 42 -109.5 114t-37.5 164q0 86 28.5 149.5t79 105t119.5 62t149 20.5q72 0 143 -17h354v-101zM300 652q0 -125 51 -193t147 -68q51 0 87 19.5t58.5 53.5t33 78.5t10.5 93.5
q0 88 -25 147t-68 86.5t-99 27.5q-95 0 -145 -63t-50 -182zM325 -16q-51 -38 -76.5 -80.5t-25.5 -96.5q0 -90 71.5 -132.5t218.5 -42.5q90 0 154.5 24t98.5 69t34 105q0 28 -7 54.5t-26.5 47.5t-55.5 33.5t-94 12.5h-149q-81 0 -143 6zM808 1387q-26 -135 -101.5 -204
t-208.5 -69q-124 0 -196 68.5t-98 204.5l77 24q25 -66 56.5 -103t69.5 -51t95 -14q56 0 97 14.5t74.5 51.5t57.5 102z" />
    <glyph glyph-name="Gdotaccent" unicode="&#x120;" horiz-adv-x="1251" 
d="M1078 5l-78 -21l-73 78q-65 -40 -136 -59t-163 -19q-253 0 -381 173.5t-128 515.5q0 213 70 374t201 247.5t308 86.5q93 0 179 -10.5t191 -36.5v-275h-99q-27 90 -64 140.5t-88.5 72t-130.5 21.5q-109 0 -191 -70t-127.5 -206.5t-45.5 -329.5q0 -196 38.5 -335
t114.5 -209.5t187 -70.5q118 0 175 51.5t57 158.5v60q0 90 -9.5 130t-33.5 62t-79 36v49h404v-49q-36 -12 -54 -27.5t-27.5 -38.5t-13 -56.5t-3.5 -95.5v-347zM738 1699v-194h-184v194h184z" />
    <glyph glyph-name="gdotaccent" unicode="&#x121;" horiz-adv-x="1012" 
d="M994 855l-185 7l-9 -11q31 -31 49 -84.5t18 -115.5q0 -163 -100.5 -251.5t-285.5 -88.5q-83 0 -143 21q-76 -58 -76 -114q0 -37 14.5 -56t48 -27t101.5 -8h240q106 0 173 -33t95.5 -88.5t28.5 -129.5q0 -94 -54 -167.5t-156 -114.5t-238 -41q-101 0 -184.5 12t-143 40.5
t-92 75t-32.5 116.5q0 63 42 114.5t119 90.5q-47 19 -74 56t-27 87q0 57 32 104.5t113 108.5q-72 42 -109.5 114t-37.5 164q0 86 28.5 149.5t79 105t119.5 62t149 20.5q72 0 143 -17h354v-101zM300 652q0 -125 51 -193t147 -68q51 0 87 19.5t58.5 53.5t33 78.5t10.5 93.5
q0 88 -25 147t-68 86.5t-99 27.5q-95 0 -145 -63t-50 -182zM325 -16q-51 -38 -76.5 -80.5t-25.5 -96.5q0 -90 71.5 -132.5t218.5 -42.5q90 0 154.5 24t98.5 69t34 105q0 28 -7 54.5t-26.5 47.5t-55.5 33.5t-94 12.5h-149q-81 0 -143 6zM598 1348v-194h-184v194h184z" />
    <glyph glyph-name="uni0122" unicode="&#x122;" horiz-adv-x="1251" 
d="M1078 5l-78 -21l-73 78q-65 -40 -136 -59t-163 -19q-253 0 -381 173.5t-128 515.5q0 213 70 374t201 247.5t308 86.5q93 0 179 -10.5t191 -36.5v-275h-99q-27 90 -64 140.5t-88.5 72t-130.5 21.5q-109 0 -191 -70t-127.5 -206.5t-45.5 -329.5q0 -196 38.5 -335
t114.5 -209.5t187 -70.5q118 0 175 51.5t57 158.5v60q0 90 -9.5 130t-33.5 62t-79 36v49h404v-49q-36 -12 -54 -27.5t-27.5 -38.5t-13 -56.5t-3.5 -95.5v-347zM757 -99q13 -41 13 -95q0 -103 -81 -164.5t-234 -71.5l-13 74q64 9 100 27t54 49.5t18 85.5q0 51 -9 95h152z" />
    <glyph glyph-name="uni0123" unicode="&#x123;" horiz-adv-x="1012" 
d="M994 855l-185 7l-9 -11q31 -31 49 -84.5t18 -115.5q0 -163 -100.5 -251.5t-285.5 -88.5q-83 0 -143 21q-76 -58 -76 -114q0 -37 14.5 -56t48 -27t101.5 -8h240q106 0 173 -33t95.5 -88.5t28.5 -129.5q0 -94 -54 -167.5t-156 -114.5t-238 -41q-101 0 -184.5 12t-143 40.5
t-92 75t-32.5 116.5q0 63 42 114.5t119 90.5q-47 19 -74 56t-27 87q0 57 32 104.5t113 108.5q-72 42 -109.5 114t-37.5 164q0 86 28.5 149.5t79 105t119.5 62t149 20.5q72 0 143 -17h354v-101zM300 652q0 -125 51 -193t147 -68q51 0 87 19.5t58.5 53.5t33 78.5t10.5 93.5
q0 88 -25 147t-68 86.5t-99 27.5q-95 0 -145 -63t-50 -182zM325 -16q-51 -38 -76.5 -80.5t-25.5 -96.5q0 -90 71.5 -132.5t218.5 -42.5q90 0 154.5 24t98.5 69t34 105q0 28 -7 54.5t-26.5 47.5t-55.5 33.5t-94 12.5h-149q-81 0 -143 6zM432 1089q-23 61 -23 120
q0 52 19.5 94.5t62.5 86.5t135 115l50 -55q-51 -54 -70.5 -84t-26.5 -61t-7 -77q0 -23 2 -47.5t10 -67.5z" />
    <glyph glyph-name="Hcircumflex" unicode="&#x124;" horiz-adv-x="1406" 
d="M1168 250q0 -58 3 -87t10 -46.5t17 -28.5t28.5 -20t57.5 -19v-49h-419v49q55 14 77 31t30.5 52t8.5 118v419h-556v-419q0 -67 4.5 -98t15 -49t31 -30t66.5 -24v-49h-421v49q62 16 83 35.5t27.5 55.5t6.5 110v865q0 69 -5 100.5t-16.5 49t-30.5 28t-65 23.5v49h421v-49
q-44 -11 -63.5 -22t-31 -27.5t-17 -49.5t-5.5 -102v-354h556v354q0 87 -8.5 119t-28.5 49t-79 33v49h419v-49q-56 -14 -78 -31.5t-30 -52.5t-8 -117v-865zM776 1780l228 -254l-57 -58l-238 185h-11l-240 -185l-56 58l240 254h134z" />
    <glyph glyph-name="hcircumflex" unicode="&#x125;" horiz-adv-x="1130" 
d="M365 799l4 -1q78 79 123.5 110.5t90 47.5t95.5 16q55 0 98 -13t75.5 -39.5t53 -65t30.5 -92t10 -135.5v-377q0 -87 7.5 -118.5t27 -49t78.5 -33.5v-49h-394v49q39 12 56 21t28.5 25t18 49.5t6.5 101.5v262q0 133 -13.5 203.5t-53 105.5t-110.5 35q-40 0 -72 -14t-74 -50
t-63.5 -74t-21.5 -81v-383q0 -68 3.5 -97t13.5 -48.5t30.5 -32t63.5 -23.5v-49h-396v49q44 12 63 23t29.5 28t15.5 49t5 101v837q0 96 -1.5 134t-8 64.5t-18 41.5t-31 24t-70.5 18v52l241 10h60v-632zM637 1795l228 -254l-57 -58l-238 185h-11l-240 -185l-56 58l240 254h134
z" />
    <glyph glyph-name="Hbar" unicode="&#x126;" horiz-adv-x="1416" 
d="M1178 250q0 -58 3 -87t10 -46.5t17 -28.5t28.5 -20t57.5 -19v-49h-419v49q55 14 77 31t30.5 52t8.5 118v254h-566v-254q0 -67 4.5 -98t15 -49t31 -30t66.5 -24v-49h-421v49q62 16 83 35.5t27.5 55.5t6.5 110v865q0 69 -5 100.5t-16.5 49t-30.5 28t-65 23.5v49h421v-49
q-44 -11 -63.5 -22t-31 -27.5t-17 -49.5t-5.5 -102v-189h566v189q0 87 -8.5 119t-28.5 49t-79 33v49h419v-49q-56 -14 -78 -31.5t-30 -52.5t-8 -117v-865zM991 596v238h-566v-238h566z" />
    <glyph glyph-name="hbar" unicode="&#x127;" horiz-adv-x="1130" 
d="M52 1218h141q-3 43 -9.5 70t-21 43t-38.5 24t-60 14v52l241 10h60v-213h341v-88h-341v-331l4 -1q78 79 123.5 110.5t90 47.5t95.5 16q55 0 98 -13t75.5 -39.5t53 -65t30.5 -92t10 -135.5v-377q0 -87 7.5 -118.5t27 -49t78.5 -33.5v-49h-394v49q39 12 56 21t28.5 25
t18 49.5t6.5 101.5v262q0 133 -13.5 203.5t-53 105.5t-110.5 35q-40 0 -72 -14t-74 -50t-63.5 -74t-21.5 -81v-383q0 -68 3.5 -97t13.5 -48.5t30.5 -32t63.5 -23.5v-49h-396v49q44 12 63 23t29.5 28t15.5 49t5 101v880h-141v88z" />
    <glyph glyph-name="Itilde" unicode="&#x128;" horiz-adv-x="664" 
d="M426 250q0 -67 4.5 -98t15 -49t31 -30t66.5 -24v-49h-422v49q62 16 83 35.5t27.5 55.5t6.5 110v865q0 69 -5 100.5t-16.5 49t-30.5 28t-65 23.5v49h422v-49q-44 -11 -63.5 -22t-31 -27.5t-17 -49.5t-5.5 -102v-865zM585 1718l78 -34q-38 -82 -72.5 -126.5t-66 -61
t-71.5 -16.5q-27 0 -47 5.5t-39.5 16t-60.5 38.5q-27 18 -42.5 28t-32.5 16.5t-36 6.5q-26 0 -43.5 -10t-35.5 -35t-37 -66l-78 34q48 96 78 133.5t61.5 54t75.5 16.5q24 0 43.5 -5.5t36 -14.5t56.5 -36q29 -20 46 -31t35 -17.5t41 -6.5q32 0 57 24.5t54 86.5z" />
    <glyph glyph-name="itilde" unicode="&#x129;" horiz-adv-x="569" 
d="M97 49q39 12 55.5 21t28 25t18 49t6.5 103v436q0 64 -2 103t-14 62.5t-36.5 35t-69.5 19.5v53l233 9h61v-715q0 -86 8 -119.5t30.5 -51t73.5 -30.5v-49h-392v49zM539 1366l78 -34q-38 -82 -72.5 -126.5t-66 -61t-71.5 -16.5q-27 0 -47 5.5t-39.5 16t-60.5 38.5
q-27 18 -42.5 28t-32.5 16.5t-36 6.5q-26 0 -43.5 -10t-35.5 -35t-37 -66l-78 34q48 96 78 133.5t61.5 54t75.5 16.5q24 0 43.5 -5.5t36 -14.5t56.5 -36q29 -20 46 -31t35 -17.5t41 -6.5q32 0 57 24.5t54 86.5z" />
    <glyph glyph-name="Imacron" unicode="&#x12a;" horiz-adv-x="664" 
d="M426 250q0 -67 4.5 -98t15 -49t31 -30t66.5 -24v-49h-422v49q62 16 83 35.5t27.5 55.5t6.5 110v865q0 69 -5 100.5t-16.5 49t-30.5 28t-65 23.5v49h422v-49q-44 -11 -63.5 -22t-31 -27.5t-17 -49.5t-5.5 -102v-865zM611 1538h-558v125h558v-125z" />
    <glyph glyph-name="imacron" unicode="&#x12b;" horiz-adv-x="569" 
d="M97 49q39 12 55.5 21t28 25t18 49t6.5 103v436q0 64 -2 103t-14 62.5t-36.5 35t-69.5 19.5v53l233 9h61v-715q0 -86 8 -119.5t30.5 -51t73.5 -30.5v-49h-392v49zM549 1188h-528v125h528v-125z" />
    <glyph glyph-name="Ibreve" unicode="&#x12c;" horiz-adv-x="664" 
d="M426 250q0 -67 4.5 -98t15 -49t31 -30t66.5 -24v-49h-422v49q62 16 83 35.5t27.5 55.5t6.5 110v865q0 69 -5 100.5t-16.5 49t-30.5 28t-65 23.5v49h422v-49q-44 -11 -63.5 -22t-31 -27.5t-17 -49.5t-5.5 -102v-865zM644 1761q-26 -137 -105 -204t-215 -67q-127 0 -202 67
t-102 204l77 24q25 -65 55.5 -101t69.5 -50.5t106 -14.5q66 0 107.5 14.5t74 50.5t57.5 101z" />
    <glyph glyph-name="ibreve" unicode="&#x12d;" horiz-adv-x="569" 
d="M97 49q39 12 55.5 21t28 25t18 49t6.5 103v436q0 64 -2 103t-14 62.5t-36.5 35t-69.5 19.5v53l233 9h61v-715q0 -86 8 -119.5t30.5 -51t73.5 -30.5v-49h-392v49zM588 1387q-26 -135 -101.5 -204t-208.5 -69q-124 0 -196 68.5t-98 204.5l77 24q25 -66 56.5 -103t69.5 -51
t95 -14q56 0 97 14.5t74.5 51.5t57.5 102z" />
    <glyph glyph-name="Iogonek" unicode="&#x12e;" horiz-adv-x="664" 
d="M426 250q0 -67 4.5 -98t15 -49t31 -30t66.5 -24v-49h-70q-124 -113 -124 -230q0 -56 25.5 -83t76.5 -27q33 0 57.5 9.5t46.5 24.5l31 -68q-37 -25 -80 -40.5t-98 -15.5q-39 0 -74.5 9.5t-62.5 30.5t-43.5 54.5t-16.5 80.5q0 67 46.5 133t128.5 122h-265v49q62 16 83 35.5
t27.5 55.5t6.5 110v865q0 69 -5 100.5t-16.5 49t-30.5 28t-65 23.5v49h422v-49q-44 -11 -63.5 -22t-31 -27.5t-17 -49.5t-5.5 -102v-865z" />
    <glyph glyph-name="iogonek" unicode="&#x12f;" horiz-adv-x="569" 
d="M383 1348v-194h-184v194h184zM97 49q39 12 55.5 21t28 25t18 49t6.5 103v436q0 64 -2 103t-14 62.5t-36.5 35t-69.5 19.5v53l233 9h61v-715q0 -86 8 -119.5t30.5 -51t73.5 -30.5v-49h-79q-124 -113 -124 -230q0 -56 25.5 -83t76.5 -27q33 0 57.5 9.5t46.5 24.5l31 -68
q-37 -25 -80 -40.5t-98 -15.5q-39 0 -74.5 9.5t-62.5 30.5t-43.5 54.5t-16.5 80.5q0 67 46.5 133t128.5 122h-226v49z" />
    <glyph glyph-name="Idotaccent" unicode="&#x130;" horiz-adv-x="664" 
d="M426 250q0 -67 4.5 -98t15 -49t31 -30t66.5 -24v-49h-422v49q62 16 83 35.5t27.5 55.5t6.5 110v865q0 69 -5 100.5t-16.5 49t-30.5 28t-65 23.5v49h422v-49q-44 -11 -63.5 -22t-31 -27.5t-17 -49.5t-5.5 -102v-865zM424 1699v-194h-184v194h184z" />
    <glyph glyph-name="dotlessi" unicode="&#x131;" horiz-adv-x="569" 
d="M97 49q39 12 55.5 21t28 25t18 49t6.5 103v436q0 64 -2 103t-14 62.5t-36.5 35t-69.5 19.5v53l233 9h61v-715q0 -86 8 -119.5t30.5 -51t73.5 -30.5v-49h-392v49z" />
    <glyph glyph-name="IJ" unicode="&#x132;" horiz-adv-x="1292" 
d="M426 250q0 -67 4.5 -98t15 -49t31 -30t66.5 -24v-49h-422v49q62 16 83 35.5t27.5 55.5t6.5 110v865q0 69 -5 100.5t-16.5 49t-30.5 28t-65 23.5v49h422v-49q-44 -11 -63.5 -22t-31 -27.5t-17 -49.5t-5.5 -102v-865zM1072 68q0 -135 -31.5 -219t-106 -142t-208.5 -99
l-33 88q88 34 125 68.5t51.5 86.5t14.5 140v1124q0 87 -8.5 119t-28 49t-80.5 33v49h422v-49q-44 -11 -63.5 -22t-31 -27.5t-17 -49.5t-5.5 -102v-1047z" />
    <glyph glyph-name="ij" unicode="&#x133;" horiz-adv-x="1114" 
d="M383 1348v-194h-184v194h184zM942 1348v-194h-183v194h183zM97 49q39 12 55.5 21t28 25t18 49t6.5 103v436q0 64 -2 103t-14 62.5t-36.5 35t-69.5 19.5v53l233 9h61v-715q0 -86 8 -119.5t30.5 -51t73.5 -30.5v-49h-392v49zM937 19q0 -140 -29 -224t-100.5 -142.5
t-199.5 -95.5l-34 88q85 33 123 67.5t53 88t15 139.5v743q0 78 -3 112t-13 53.5t-31 31.5t-76 23v53l234 9h61v-946z" />
    <glyph glyph-name="Jcircumflex" unicode="&#x134;" horiz-adv-x="628" 
d="M408 68q0 -135 -31.5 -219t-106 -142t-208.5 -99l-33 88q88 34 125 68.5t51.5 86.5t14.5 140v1124q0 87 -8.5 119t-28 49t-80.5 33v49h422v-49q-44 -11 -63.5 -22t-31 -27.5t-17 -49.5t-5.5 -102v-1047zM387 1780l228 -254l-57 -58l-238 185h-11l-240 -185l-56 58
l240 254h134z" />
    <glyph glyph-name="jcircumflex" unicode="&#x135;" horiz-adv-x="545" 
d="M344 1442l214 -315l-69 -57l-212 237h-11l-212 -237l-68 57l224 315h134zM368 19q0 -140 -29 -224t-100.5 -142.5t-199.5 -95.5l-34 88q62 24 94.5 45.5t53.5 50t32 76.5t11 123v743q0 78 -3 112t-13 53.5t-31 31.5t-76 23v53l234 9h61v-946z" />
    <glyph glyph-name="uni0136" unicode="&#x136;" horiz-adv-x="1289" 
d="M424 748h30q38 0 69.5 12t70.5 45t119 123q96 107 131 155q44 57 59 96q12 29 12 56q0 40 -23 58.5t-63 22.5v49h436v-49q-32 -7 -63 -24.5t-63.5 -48t-95.5 -100.5l-336 -378l364 -529q58 -84 91 -117.5t63 -49t64 -20.5v-49h-441v49q37 3 54 14t17 33q0 18 -11.5 43.5
t-36.5 61.5l-233 347q-41 62 -60 82t-41 29.5t-59 9.5h-53v-419q0 -67 4.5 -98t15 -49t31 -30t66.5 -24v-49h-421v49q62 16 83 35.5t27.5 55.5t6.5 110v865q0 69 -5 100.5t-16.5 49t-30.5 28t-65 23.5v49h421v-49q-44 -11 -63.5 -22t-31 -27.5t-17 -49.5t-5.5 -102zM775 -99
q13 -41 13 -95q0 -103 -81 -164.5t-234 -71.5l-13 74q64 9 100 27t54 49.5t18 85.5q0 51 -9 95h152z" />
    <glyph glyph-name="uni0137" unicode="&#x137;" horiz-adv-x="1074" 
d="M364 557h32q33 0 54 7q25 9 55 30.5t85 72.5q46 43 69.5 73t32.5 55q8 21 8 42q0 30 -18.5 47t-60.5 23v49h431v-49q-46 -9 -98 -41t-107 -84l-230 -218l288 -376q50 -66 90.5 -97.5t88.5 -41.5v-49h-384v49q26 3 38.5 11.5t12.5 28.5q0 15 -5.5 29.5t-22.5 39.5t-62 87
l-119 160q-34 45 -48.5 59t-30.5 20t-43 6h-56v-240q0 -86 8 -119.5t30.5 -51t73.5 -30.5v-49h-397v49q50 13 69.5 27t28 33.5t12 53t3.5 87.5v837q0 96 -1.5 134t-8 64.5t-18 41.5t-31 24t-70.5 18v52l241 10h60v-874zM657 -99q13 -41 13 -95q0 -103 -81 -164.5t-234 -71.5
l-13 74q64 9 100 27t54 49.5t18 85.5q0 51 -9 95h152z" />
    <glyph glyph-name="kgreenlandic" unicode="&#x138;" horiz-adv-x="1087" 
d="M377 557h32q33 0 54 7q25 9 55 30.5t85 72.5q46 43 69.5 73t32.5 55q8 21 8 42q0 30 -18.5 47t-60.5 23v49h431v-49q-46 -9 -98 -41t-107 -84l-230 -218l288 -376q50 -66 90.5 -97.5t88.5 -41.5v-49h-384v49q26 3 38.5 11.5t12.5 28.5q0 15 -7 32t-20.5 37.5t-62.5 86.5
l-119 160q-34 45 -48.5 59t-30.5 20t-43 6h-56v-240q0 -86 8 -119.5t30.5 -51t73.5 -30.5v-49h-397v49q44 12 63 23t29.5 28t15.5 49t5 101v411q0 87 -2 121t-9 54t-17 30.5t-27 18t-67 18.5v52l234 10h60v-408z" />
    <glyph glyph-name="Lacute" unicode="&#x139;" horiz-adv-x="1099" 
d="M425 92h262q43 0 72 5t49.5 15.5t37 29t31.5 48.5t28.5 75.5t33.5 136.5h101l-20 -402h-899v49q62 16 83 35.5t27.5 55.5t6.5 110v865q0 69 -5 100.5t-16.5 49t-30.5 28t-65 23.5v49h421v-49q-44 -12 -62.5 -21.5t-30.5 -25.5t-18 -49t-6 -105v-1023zM787 1782v-50
l-382 -264l-56 57l241 257h197z" />
    <glyph glyph-name="lacute" unicode="&#x13a;" horiz-adv-x="556" 
d="M364 250q0 -86 8 -119.5t30.5 -51t73.5 -30.5v-49h-397v49q50 13 69.5 27t28 33.5t12 53t3.5 87.5v837q0 96 -1.5 134t-8 64.5t-18 41.5t-31 24t-70.5 18v52l241 10h60v-1181zM538 1797v-50l-382 -264l-56 57l241 257h197z" />
    <glyph glyph-name="uni013B" unicode="&#x13b;" horiz-adv-x="1099" 
d="M425 92h262q43 0 72 5t49.5 15.5t37 29t31.5 48.5t28.5 75.5t33.5 136.5h101l-20 -402h-899v49q62 16 83 35.5t27.5 55.5t6.5 110v865q0 69 -5 100.5t-16.5 49t-30.5 28t-65 23.5v49h421v-49q-44 -12 -62.5 -21.5t-30.5 -25.5t-18 -49t-6 -105v-1023zM688 -99
q13 -41 13 -95q0 -103 -81 -164.5t-234 -71.5l-13 74q64 9 100 27t54 49.5t18 85.5q0 51 -9 95h152z" />
    <glyph glyph-name="uni013C" unicode="&#x13c;" horiz-adv-x="556" 
d="M364 250q0 -86 8 -119.5t30.5 -51t73.5 -30.5v-49h-397v49q50 13 69.5 27t28 33.5t12 53t3.5 87.5v837q0 96 -1.5 134t-8 64.5t-18 41.5t-31 24t-70.5 18v52l241 10h60v-1181zM372 -99q13 -41 13 -95q0 -103 -81 -164.5t-234 -71.5l-13 74q64 9 100 27t54 49.5t18 85.5
q0 51 -9 95h152z" />
    <glyph glyph-name="Lcaron" unicode="&#x13d;" horiz-adv-x="1099" 
d="M425 92h262q43 0 72 5t49.5 15.5t37 29t31.5 48.5t28.5 75.5t33.5 136.5h101l-20 -402h-899v49q62 16 83 35.5t27.5 55.5t6.5 110v865q0 69 -5 100.5t-16.5 49t-30.5 28t-65 23.5v49h421v-49q-44 -12 -62.5 -21.5t-30.5 -25.5t-18 -49t-6 -105v-1023zM884 1431
q23 -66 23 -129q0 -57 -17.5 -102.5t-55.5 -92t-121 -121.5l-55 54q47 58 66 113t19 128q0 32 -2.5 60t-13.5 90h157z" />
    <glyph glyph-name="lcaron" unicode="&#x13e;" horiz-adv-x="788" 
d="M364 250q0 -86 8 -119.5t30.5 -51t73.5 -30.5v-49h-397v49q50 13 69.5 27t28 33.5t12 53t3.5 87.5v837q0 96 -1.5 134t-8 64.5t-18 41.5t-31 24t-70.5 18v52l241 10h60v-1181zM715 1431q23 -66 23 -129q0 -57 -17.5 -102.5t-55.5 -92t-121 -121.5l-55 54q47 58 66 113
t19 128q0 32 -2.5 60t-13.5 90h157z" />
    <glyph glyph-name="Ldot" unicode="&#x13f;" horiz-adv-x="1274" 
d="M425 92h262q43 0 72 5t49.5 15.5t37 29t31.5 48.5t28.5 75.5t33.5 136.5h101l-20 -402h-899v49q62 16 83 35.5t27.5 55.5t6.5 110v865q0 69 -5 100.5t-16.5 49t-30.5 28t-65 23.5v49h421v-49q-44 -12 -62.5 -21.5t-30.5 -25.5t-18 -49t-6 -105v-1023zM1249 793v-194h-184
v194h184z" />
    <glyph glyph-name="ldot" unicode="&#x140;" horiz-adv-x="770" 
d="M364 250q0 -86 8 -119.5t30.5 -51t73.5 -30.5v-49h-397v49q50 13 69.5 27t28 33.5t12 53t3.5 87.5v837q0 96 -1.5 134t-8 64.5t-18 41.5t-31 24t-70.5 18v52l241 10h60v-1181zM745 793v-194h-184v194h184z" />
    <glyph glyph-name="Lslash" unicode="&#x141;" horiz-adv-x="1105" 
d="M63 486l-50 83l231 146v400q0 69 -5 100.5t-16.5 49t-30.5 28t-65 23.5v49h421v-49q-44 -12 -62.5 -21.5t-30.5 -25.5t-18 -49t-6 -105v-294l320 210l51 -82l-371 -236v-621h262q43 0 72 5t49.5 15.5t37 29t31.5 48.5t28.5 75.5t33.5 136.5h101l-20 -402h-899v49
q62 16 83 35.5t27.5 55.5t6.5 110v357z" />
    <glyph glyph-name="lslash" unicode="&#x142;" horiz-adv-x="632" 
d="M230 648l-167 -113l-50 83l217 138v331q0 96 -1.5 134t-8 64.5t-18 41.5t-31 24t-70.5 18v52l241 10h60v-578l166 113l51 -82l-217 -138v-496q0 -86 8 -119.5t30.5 -51t73.5 -30.5v-49h-397v49q44 12 63 23t29.5 28t15.5 49t5 101v398z" />
    <glyph glyph-name="Nacute" unicode="&#x143;" horiz-adv-x="1394" 
d="M924 541q36 -60 60.5 -105t50.5 -101h13q-5 61 -9 242.5t-4 327.5v210q0 69 -4 101t-14.5 49t-29 27.5t-64.5 23.5v49h360v-49q-45 -12 -63.5 -22t-30 -26t-17.5 -48t-6 -105v-1121h-125l-557 934q-52 87 -74 127t-41 79h-17q7 -77 10 -278.5t3 -401.5v-204
q0 -67 4.5 -98t15 -49t31 -30t66.5 -24v-49h-365v49q62 16 83 35.5t27.5 55.5t6.5 110v865q0 69 -5 100.5t-16.5 49t-30.5 28t-65 23.5v49h313zM1000 1782v-50l-382 -264l-56 57l241 257h197z" />
    <glyph glyph-name="nacute" unicode="&#x144;" horiz-adv-x="1143" 
d="M1071 0h-394v49q39 12 56 21t28.5 25t18 49.5t6.5 101.5v262q0 70 -4 127t-13.5 93.5t-23 57t-32 35t-42.5 23t-63 8.5t-74 -15.5t-77 -53.5t-61 -75t-19 -85v-373q0 -86 8 -119.5t30.5 -51t73.5 -30.5v-49h-392v49q39 12 55.5 21t28 25t18 49t6.5 103v436q0 64 -2 103
t-14 62.5t-36.5 35t-69.5 19.5v53l234 9h61l-11 -163l14 -4q74 75 119.5 107t92 49.5t98.5 17.5q54 0 96.5 -12.5t75 -38.5t53.5 -64.5t31.5 -92.5t10.5 -137v-377q0 -69 4 -100t14 -48t29 -28.5t66 -24.5v-49zM824 1442v-50l-317 -322l-65 52l207 320h175z" />
    <glyph glyph-name="uni0145" unicode="&#x145;" horiz-adv-x="1394" 
d="M924 541q36 -60 60.5 -105t50.5 -101h13q-5 61 -9 242.5t-4 327.5v210q0 69 -4 101t-14.5 49t-29 27.5t-64.5 23.5v49h360v-49q-45 -12 -63.5 -22t-30 -26t-17.5 -48t-6 -105v-1121h-125l-557 934q-52 87 -74 127t-41 79h-17q7 -77 10 -278.5t3 -401.5v-204
q0 -67 4.5 -98t15 -49t31 -30t66.5 -24v-49h-365v49q62 16 83 35.5t27.5 55.5t6.5 110v865q0 69 -5 100.5t-16.5 49t-30.5 28t-65 23.5v49h313zM801 -99q13 -41 13 -95q0 -103 -81 -164.5t-234 -71.5l-13 74q64 9 100 27t54 49.5t18 85.5q0 51 -9 95h152z" />
    <glyph glyph-name="uni0146" unicode="&#x146;" horiz-adv-x="1143" 
d="M1071 0h-394v49q39 12 56 21t28.5 25t18 49.5t6.5 101.5v262q0 70 -4 127t-13.5 93.5t-23 57t-32 35t-42.5 23t-63 8.5t-74 -15.5t-77 -53.5t-61 -75t-19 -85v-373q0 -86 8 -119.5t30.5 -51t73.5 -30.5v-49h-392v49q39 12 55.5 21t28 25t18 49t6.5 103v436q0 64 -2 103
t-14 62.5t-36.5 35t-69.5 19.5v53l234 9h61l-11 -163l14 -4q74 75 119.5 107t92 49.5t98.5 17.5q54 0 96.5 -12.5t75 -38.5t53.5 -64.5t31.5 -92.5t10.5 -137v-377q0 -69 4 -100t14 -48t29 -28.5t66 -24.5v-49zM666 -99q13 -41 13 -95q0 -103 -81 -164.5t-234 -71.5l-13 74
q64 9 100 27t54 49.5t18 85.5q0 51 -9 95h152z" />
    <glyph glyph-name="Ncaron" unicode="&#x147;" horiz-adv-x="1394" 
d="M924 541q36 -60 60.5 -105t50.5 -101h13q-5 61 -9 242.5t-4 327.5v210q0 69 -4 101t-14.5 49t-29 27.5t-64.5 23.5v49h360v-49q-45 -12 -63.5 -22t-30 -26t-17.5 -48t-6 -105v-1121h-125l-557 934q-52 87 -74 127t-41 79h-17q7 -77 10 -278.5t3 -401.5v-204
q0 -67 4.5 -98t15 -49t31 -30t66.5 -24v-49h-365v49q62 16 83 35.5t27.5 55.5t6.5 110v865q0 69 -5 100.5t-16.5 49t-30.5 28t-65 23.5v49h313zM647 1468l-228 254l57 58l238 -185h11l240 185l56 -58l-240 -254h-134z" />
    <glyph glyph-name="ncaron" unicode="&#x148;" horiz-adv-x="1143" 
d="M1071 0h-394v49q39 12 56 21t28.5 25t18 49.5t6.5 101.5v262q0 70 -4 127t-13.5 93.5t-23 57t-32 35t-42.5 23t-63 8.5t-74 -15.5t-77 -53.5t-61 -75t-19 -85v-373q0 -86 8 -119.5t30.5 -51t73.5 -30.5v-49h-392v49q39 12 55.5 21t28 25t18 49t6.5 103v436q0 64 -2 103
t-14 62.5t-36.5 35t-69.5 19.5v53l234 9h61l-11 -163l14 -4q74 75 119.5 107t92 49.5t98.5 17.5q54 0 96.5 -12.5t75 -38.5t53.5 -64.5t31.5 -92.5t10.5 -137v-377q0 -69 4 -100t14 -48t29 -28.5t66 -24.5v-49zM499 1084l-213 315l68 57l212 -243h11l212 243l69 -57
l-225 -315h-134z" />
    <glyph glyph-name="napostrophe" unicode="&#x149;" horiz-adv-x="1413" 
d="M1341 0h-394v49q39 12 56 21t28.5 25t18 49.5t6.5 101.5v262q0 70 -4 127t-13.5 93.5t-23 57t-32 35t-42.5 23t-63 8.5t-74 -15.5t-77 -53.5t-61 -75t-19 -85v-373q0 -86 8 -119.5t30.5 -51t73.5 -30.5v-49h-392v49q39 12 55.5 21t28 25t18 49t6.5 103v436q0 64 -2 103
t-14 62.5t-36.5 35t-69.5 19.5v53l234 9h61l-11 -163l14 -4q74 75 119.5 107t92 49.5t98.5 17.5q54 0 96.5 -12.5t75 -38.5t53.5 -64.5t31.5 -92.5t10.5 -137v-377q0 -69 4 -100t14 -48t29 -28.5t66 -24.5v-49zM323 1431q12 -33 18.5 -72t6.5 -71q0 -66 -20 -117
t-63.5 -103.5t-132.5 -130.5l-61 60q49 59 72 119.5t23 147.5q0 30 -3 64t-15 103h175z" />
    <glyph glyph-name="Eng" unicode="&#x14a;" horiz-adv-x="1394" 
d="M1166 43q0 -173 -32.5 -260t-98 -132.5t-160.5 -45.5q-86 0 -154 21v185h96q4 -27 14.5 -42.5t27.5 -22t46 -6.5q66 0 103.5 61.5t37.5 168.5v30h-8l-554 928q-51 86 -73.5 126.5t-41.5 79.5h-17q7 -77 10 -278.5t3 -401.5v-204q0 -67 4.5 -98t15 -49t31 -30t66.5 -24
v-49h-365v49q62 16 83 35.5t27.5 55.5t6.5 110v865q0 69 -5 100.5t-16.5 49t-30.5 28t-65 23.5v49h313l494 -824q36 -60 60.5 -105t50.5 -101h13q-5 61 -9 242.5t-4 327.5v210q0 69 -5 100.5t-16.5 49t-30.5 28t-65 23.5v49h365v-49q-45 -12 -63.5 -22t-30 -26t-17.5 -48
t-6 -105v-1072z" />
    <glyph glyph-name="eng" unicode="&#x14b;" horiz-adv-x="1128" 
d="M958 60q0 -84 -8.5 -145t-31 -107.5t-56 -76t-76.5 -44.5t-97 -15q-80 0 -128 16v86q45 -15 86 -15q42 0 67 13t40.5 43t23.5 86t8 143v464q0 70 -4 127t-13.5 93.5t-23 57t-32 35t-42.5 23t-63 8.5t-74 -15.5t-77 -53.5t-61 -75t-19 -85v-373q0 -86 8 -119.5t30.5 -51
t73.5 -30.5v-49h-392v49q39 12 55.5 21t28 25t18 49t6.5 103v436q0 64 -2 103t-14 62.5t-36.5 35t-69.5 19.5v53l234 9h61l-11 -163l14 -4q74 75 119.5 107t92 49.5t98.5 17.5q54 0 96.5 -12.5t75 -38.5t53.5 -64.5t31.5 -92.5t10.5 -137v-567z" />
    <glyph glyph-name="Omacron" unicode="&#x14c;" horiz-adv-x="1338" 
d="M654 -16q-120 0 -218.5 39.5t-169 123t-109 213.5t-38.5 311q0 223 68 383t194.5 243.5t293.5 83.5q178 0 299.5 -78.5t183 -231t61.5 -371.5q0 -234 -70 -395t-197.5 -241t-297.5 -80zM325 699q0 -307 89.5 -467t261.5 -160q109 0 185 69.5t114 203.5t38 313
q0 218 -44.5 361.5t-121.5 208.5t-179 65q-90 0 -154.5 -42t-107 -119.5t-62 -187.5t-19.5 -245zM948 1538h-558v125h558v-125z" />
    <glyph glyph-name="omacron" unicode="&#x14d;" horiz-adv-x="1087" 
d="M532 -16q-208 0 -317.5 122.5t-109.5 362.5q0 165 57.5 279t157.5 169.5t228 55.5q214 0 324 -124.5t110 -357.5q0 -166 -55 -280t-156 -170.5t-239 -56.5zM294 490q0 -206 65.5 -316.5t187.5 -110.5q67 0 114 32.5t76.5 87.5t42.5 127.5t13 151.5q0 147 -32.5 244
t-88.5 142.5t-128 45.5q-121 0 -185.5 -105t-64.5 -299zM808 1188h-528v125h528v-125z" />
    <glyph glyph-name="Obreve" unicode="&#x14e;" horiz-adv-x="1338" 
d="M654 -16q-120 0 -218.5 39.5t-169 123t-109 213.5t-38.5 311q0 223 68 383t194.5 243.5t293.5 83.5q178 0 299.5 -78.5t183 -231t61.5 -371.5q0 -234 -70 -395t-197.5 -241t-297.5 -80zM325 699q0 -307 89.5 -467t261.5 -160q109 0 185 69.5t114 203.5t38 313
q0 218 -44.5 361.5t-121.5 208.5t-179 65q-90 0 -154.5 -42t-107 -119.5t-62 -187.5t-19.5 -245zM981 1761q-26 -137 -105 -204t-215 -67q-127 0 -202 67t-102 204l77 24q25 -65 55.5 -101t69.5 -50.5t106 -14.5q66 0 107.5 14.5t74 50.5t57.5 101z" />
    <glyph glyph-name="obreve" unicode="&#x14f;" horiz-adv-x="1087" 
d="M532 -16q-208 0 -317.5 122.5t-109.5 362.5q0 165 57.5 279t157.5 169.5t228 55.5q214 0 324 -124.5t110 -357.5q0 -166 -55 -280t-156 -170.5t-239 -56.5zM294 490q0 -206 65.5 -316.5t187.5 -110.5q67 0 114 32.5t76.5 87.5t42.5 127.5t13 151.5q0 147 -32.5 244
t-88.5 142.5t-128 45.5q-121 0 -185.5 -105t-64.5 -299zM846 1387q-26 -135 -101.5 -204t-208.5 -69q-124 0 -196 68.5t-98 204.5l77 24q25 -66 56.5 -103t69.5 -51t95 -14q56 0 97 14.5t74.5 51.5t57.5 102z" />
    <glyph glyph-name="Ohungarumlaut" unicode="&#x150;" horiz-adv-x="1338" 
d="M654 -16q-120 0 -218.5 39.5t-169 123t-109 213.5t-38.5 311q0 223 68 383t194.5 243.5t293.5 83.5q178 0 299.5 -78.5t183 -231t61.5 -371.5q0 -234 -70 -395t-197.5 -241t-297.5 -80zM325 699q0 -307 89.5 -467t261.5 -160q109 0 185 69.5t114 203.5t38 313
q0 218 -44.5 361.5t-121.5 208.5t-179 65q-90 0 -154.5 -42t-107 -119.5t-62 -187.5t-19.5 -245zM1090 1782v-50l-332 -264l-56 59l237 255h151zM759 1782v-50l-332 -264l-56 59l237 255h151z" />
    <glyph glyph-name="ohungarumlaut" unicode="&#x151;" horiz-adv-x="1087" 
d="M532 -16q-208 0 -317.5 122.5t-109.5 362.5q0 165 57.5 279t157.5 169.5t228 55.5q214 0 324 -124.5t110 -357.5q0 -166 -55 -280t-156 -170.5t-239 -56.5zM294 490q0 -206 65.5 -316.5t187.5 -110.5q67 0 114 32.5t76.5 87.5t42.5 127.5t13 151.5q0 147 -32.5 244
t-88.5 142.5t-128 45.5q-121 0 -185.5 -105t-64.5 -299zM939 1442v-50l-297 -322l-66 52l226 320h137zM635 1442v-50l-297 -322l-66 52l226 320h137z" />
    <glyph glyph-name="OE" unicode="&#x152;" horiz-adv-x="1902" 
d="M1780 1365v-302h-98q-15 49 -31 86t-33 62t-37.5 40t-48.5 20.5t-67 5.5h-301v-524h199q44 0 69 12.5t41.5 42.5t31.5 94h94v-384h-94q-14 60 -31 90.5t-40.5 43.5t-70.5 13h-199v-577h296q49 0 79.5 8.5t52.5 29t39 53.5t28.5 68.5t31.5 103.5h99l-19 -351h-779v135h-10
q-76 -79 -158.5 -115t-188.5 -36q-115 0 -209.5 39.5t-163 123t-106 213.5t-37.5 311q0 225 67 385t189.5 242.5t280.5 82.5q111 0 188 -30.5t147 -100.5h10v115h779zM325 699q0 -308 87.5 -467.5t254.5 -159.5q158 0 240 151t82 435q0 172 -24.5 292.5t-68 196.5
t-104.5 111t-133 35q-88 0 -151 -41.5t-104 -119t-60 -187.5t-19 -246z" />
    <glyph glyph-name="oe" unicode="&#x153;" horiz-adv-x="1676" 
d="M1573 170q-59 -64 -113.5 -103t-121.5 -61t-148 -22q-75 0 -130.5 18.5t-98 52.5t-86.5 93h-8q-76 -90 -151 -127t-184 -37q-208 0 -317.5 122.5t-109.5 362.5q0 165 57.5 279t157.5 169.5t228 55.5q108 0 188.5 -39t147.5 -127h9q79 90 153 128t168 38q96 0 164.5 -28.5
t113 -80t71.5 -137.5t30 -234h-630v-18q0 -118 26.5 -198.5t87 -126t157.5 -45.5q82 0 147.5 30.5t130.5 99.5zM294 490q0 -206 65.5 -316.5t187.5 -110.5q67 0 113.5 32.5t76 87.5t42.5 127.5t13 151.5q0 149 -32.5 246.5t-88 141.5t-128.5 44q-121 0 -185 -105t-64 -299z
M1405 576q-9 166 -57 242t-143 76q-102 0 -163.5 -81.5t-73.5 -236.5h437z" />
    <glyph glyph-name="Racute" unicode="&#x154;" horiz-adv-x="1272" 
d="M426 593v-340q0 -72 5.5 -104.5t16.5 -49t30 -27t65 -23.5v-49h-422v49q62 16 83 35.5t27.5 55.5t6.5 110v865q0 69 -5 100.5t-16.5 49t-30.5 28t-65 23.5v49h495q234 0 350 -85t116 -264q0 -137 -75.5 -233t-226.5 -150v-8q61 -25 104.5 -71.5t96.5 -144.5l90 -164
q39 -72 67 -110t57 -58t77 -28v-49h-277q-38 53 -72 114t-67 124l-88 167q-40 76 -65.5 112t-47 50.5t-46 20t-73.5 5.5h-110zM426 1273v-594h113q87 0 141 12.5t100 47.5t73.5 97.5t27.5 153.5q0 95 -32.5 158t-98.5 96t-178 33q-90 0 -146 -4zM930 1782v-50l-382 -264
l-56 57l241 257h197z" />
    <glyph glyph-name="racute" unicode="&#x155;" horiz-adv-x="847" 
d="M367 790l14 -3q55 67 102 105.5t101.5 59.5t123.5 21q58 0 105 -6v-230h-113q-24 54 -51 78.5t-74 24.5q-36 0 -71.5 -21t-68.5 -61t-45.5 -75t-12.5 -83v-350q0 -91 11 -125.5t36.5 -50.5t76.5 -25v-49h-403v49q38 12 54.5 21t28.5 25t18 49t6 103v436q0 64 -2 103
t-14 62.5t-36.5 35t-69.5 19.5v52l234 10h61zM677 1442v-50l-317 -322l-65 52l207 320h175z" />
    <glyph glyph-name="uni0156" unicode="&#x156;" horiz-adv-x="1272" 
d="M426 593v-340q0 -72 5.5 -104.5t16.5 -49t30 -27t65 -23.5v-49h-422v49q62 16 83 35.5t27.5 55.5t6.5 110v865q0 69 -5 100.5t-16.5 49t-30.5 28t-65 23.5v49h495q234 0 350 -85t116 -264q0 -137 -75.5 -233t-226.5 -150v-8q61 -25 104.5 -71.5t96.5 -144.5l90 -164
q39 -72 67 -110t57 -58t77 -28v-49h-277q-38 53 -72 114t-67 124l-88 167q-40 76 -65.5 112t-47 50.5t-46 20t-73.5 5.5h-110zM426 1273v-594h113q87 0 141 12.5t100 47.5t73.5 97.5t27.5 153.5q0 95 -32.5 158t-98.5 96t-178 33q-90 0 -146 -4zM790 -99q13 -41 13 -95
q0 -103 -81 -164.5t-234 -71.5l-13 74q64 9 100 27t54 49.5t18 85.5q0 51 -9 95h152z" />
    <glyph glyph-name="uni0157" unicode="&#x157;" horiz-adv-x="847" 
d="M367 790l14 -3q55 67 102 105.5t101.5 59.5t123.5 21q58 0 105 -6v-230h-113q-24 54 -51 78.5t-74 24.5q-36 0 -71.5 -21t-68.5 -61t-45.5 -75t-12.5 -83v-350q0 -91 11 -125.5t36.5 -50.5t76.5 -25v-49h-403v49q38 12 54.5 21t28.5 25t18 49t6 103v436q0 64 -2 103
t-14 62.5t-36.5 35t-69.5 19.5v52l234 10h61zM405 -99q13 -41 13 -95q0 -103 -81 -164.5t-234 -71.5l-13 74q64 9 100 27t54 49.5t18 85.5q0 51 -9 95h152z" />
    <glyph glyph-name="Rcaron" unicode="&#x158;" horiz-adv-x="1272" 
d="M426 593v-340q0 -72 5.5 -104.5t16.5 -49t30 -27t65 -23.5v-49h-422v49q62 16 83 35.5t27.5 55.5t6.5 110v865q0 69 -5 100.5t-16.5 49t-30.5 28t-65 23.5v49h495q234 0 350 -85t116 -264q0 -137 -75.5 -233t-226.5 -150v-8q61 -25 104.5 -71.5t96.5 -144.5l90 -164
q39 -72 67 -110t57 -58t77 -28v-49h-277q-38 53 -72 114t-67 124l-88 167q-40 76 -65.5 112t-47 50.5t-46 20t-73.5 5.5h-110zM426 1273v-594h113q87 0 141 12.5t100 47.5t73.5 97.5t27.5 153.5q0 95 -32.5 158t-98.5 96t-178 33q-90 0 -146 -4zM566 1468l-228 254l57 58
l238 -185h11l240 185l56 -58l-240 -254h-134z" />
    <glyph glyph-name="rcaron" unicode="&#x159;" horiz-adv-x="847" 
d="M367 790l14 -3q55 67 102 105.5t101.5 59.5t123.5 21q58 0 105 -6v-230h-113q-24 54 -51 78.5t-74 24.5q-36 0 -71.5 -21t-68.5 -61t-45.5 -75t-12.5 -83v-350q0 -91 11 -125.5t36.5 -50.5t76.5 -25v-49h-403v49q38 12 54.5 21t28.5 25t18 49t6 103v436q0 64 -2 103
t-14 62.5t-36.5 35t-69.5 19.5v52l234 10h61zM351 1084l-213 315l68 57l212 -243h11l212 243l69 -57l-225 -315h-134z" />
    <glyph glyph-name="Sacute" unicode="&#x15a;" horiz-adv-x="1016" 
d="M212 311q20 -88 54 -139t88 -75.5t139 -24.5q117 0 179.5 61t62.5 178q0 75 -26 126t-85 96t-180 105q-117 58 -185 113.5t-101.5 120.5t-33.5 142q0 112 52.5 194.5t154 127.5t232.5 45q76 0 148.5 -8t181.5 -36v-270h-99q-23 88 -58 137t-82 68.5t-122 19.5
q-65 0 -116.5 -24t-81.5 -72.5t-30 -115.5q0 -71 25.5 -120t79.5 -91t160 -94q128 -64 198.5 -119t110 -125.5t39.5 -164.5q0 -105 -33 -177.5t-91.5 -118t-140 -66t-178.5 -20.5q-157 0 -362 53v274h100zM789 1782v-50l-382 -264l-56 57l241 257h197z" />
    <glyph glyph-name="sacute" unicode="&#x15b;" horiz-adv-x="880" 
d="M767 737h-96q-22 60 -52 94.5t-68 48.5t-93 14q-80 0 -127.5 -37.5t-47.5 -102.5q0 -46 19 -76t59 -56t141 -69q102 -44 157.5 -81t87 -86t31.5 -117q0 -79 -27 -133t-76 -88t-116.5 -49t-147.5 -15q-84 0 -163 12.5t-154 32.5v209h98q27 -92 80 -133.5t146 -41.5
q36 0 70.5 7.5t61.5 25t43 47.5t16 75q0 51 -20 83t-62 58.5t-148 71.5q-91 38 -146 74t-86.5 85t-31.5 116q0 82 44.5 142.5t128.5 92.5t197 32q66 0 127.5 -6.5t154.5 -25.5v-204zM693 1442v-50l-317 -322l-65 52l207 320h175z" />
    <glyph glyph-name="Scircumflex" unicode="&#x15c;" horiz-adv-x="1016" 
d="M212 311q20 -88 54 -139t88 -75.5t139 -24.5q117 0 179.5 61t62.5 178q0 75 -26 126t-85 96t-180 105q-117 58 -185 113.5t-101.5 120.5t-33.5 142q0 112 52.5 194.5t154 127.5t232.5 45q76 0 148.5 -8t181.5 -36v-270h-99q-23 88 -58 137t-82 68.5t-122 19.5
q-65 0 -116.5 -24t-81.5 -72.5t-30 -115.5q0 -71 25.5 -120t79.5 -91t160 -94q128 -64 198.5 -119t110 -125.5t39.5 -164.5q0 -105 -33 -177.5t-91.5 -118t-140 -66t-178.5 -20.5q-157 0 -362 53v274h100zM581 1780l228 -254l-57 -58l-238 185h-11l-240 -185l-56 58l240 254
h134z" />
    <glyph glyph-name="scircumflex" unicode="&#x15d;" horiz-adv-x="880" 
d="M767 737h-96q-22 60 -52 94.5t-68 48.5t-93 14q-80 0 -127.5 -37.5t-47.5 -102.5q0 -46 19 -76t59 -56t141 -69q102 -44 157.5 -81t87 -86t31.5 -117q0 -79 -27 -133t-76 -88t-116.5 -49t-147.5 -15q-84 0 -163 12.5t-154 32.5v209h98q27 -92 80 -133.5t146 -41.5
q36 0 70.5 7.5t61.5 25t43 47.5t16 75q0 51 -20 83t-62 58.5t-148 71.5q-91 38 -146 74t-86.5 85t-31.5 116q0 82 44.5 142.5t128.5 92.5t197 32q66 0 127.5 -6.5t154.5 -25.5v-204zM512 1442l214 -315l-69 -57l-212 243h-11l-212 -243l-68 57l224 315h134z" />
    <glyph glyph-name="Scedilla" unicode="&#x15e;" horiz-adv-x="1016" 
d="M212 311q20 -87 54 -138.5t88 -76t137 -24.5q120 0 182 61t62 178q0 75 -26 126t-85 96t-180 105q-117 58 -185 113.5t-101.5 120.5t-33.5 142q0 112 52.5 194.5t154 127.5t232.5 45q76 0 148.5 -8t181.5 -36v-270h-99q-23 88 -58 137t-82 68.5t-122 19.5
q-65 0 -116.5 -24t-81.5 -72.5t-30 -115.5q0 -71 25.5 -120t79.5 -91t160 -94q128 -64 198.5 -119t110 -125.5t39.5 -164.5q0 -139 -61.5 -229t-182.5 -127l-121 -90q10 -22 17 -53t7 -59q0 -103 -81.5 -165.5t-233.5 -72.5l-13 74q65 8 104 30t54 51.5t15 71.5q0 26 -6 52
v40l142 99q-54 -4 -83 -4q-157 0 -362 53v274h100z" />
    <glyph glyph-name="scedilla" unicode="&#x15f;" horiz-adv-x="880" 
d="M767 737h-96q-22 60 -52 94.5t-68 48.5t-93 14q-80 0 -127.5 -37.5t-47.5 -102.5q0 -46 19 -76t59 -56t141 -69q102 -44 157.5 -81t87 -86t31.5 -117q0 -90 -37.5 -152t-111.5 -95l-137 -102q10 -22 17 -53t7 -59q0 -103 -81.5 -165.5t-233.5 -72.5l-13 74q65 8 104 30
t54 51.5t15 71.5q0 26 -6 52v40l148 102q-50 -7 -92 -7q-84 0 -163 12.5t-154 32.5v209h98q27 -92 80 -133.5t146 -41.5q36 0 70.5 7.5t61.5 25t43 47.5t16 75q0 51 -20 83t-62 58.5t-148 71.5q-91 38 -146 74t-86.5 85t-31.5 116q0 82 44.5 142.5t128.5 92.5t197 32
q66 0 127.5 -6.5t154.5 -25.5v-204z" />
    <glyph glyph-name="Scaron" unicode="&#x160;" horiz-adv-x="1016" 
d="M212 311q20 -88 54 -139t88 -75.5t139 -24.5q117 0 179.5 61t62.5 178q0 75 -26 126t-85 96t-180 105q-117 58 -185 113.5t-101.5 120.5t-33.5 142q0 112 52.5 194.5t154 127.5t232.5 45q76 0 148.5 -8t181.5 -36v-270h-99q-23 88 -58 137t-82 68.5t-122 19.5
q-65 0 -116.5 -24t-81.5 -72.5t-30 -115.5q0 -71 25.5 -120t79.5 -91t160 -94q128 -64 198.5 -119t110 -125.5t39.5 -164.5q0 -105 -33 -177.5t-91.5 -118t-140 -66t-178.5 -20.5q-157 0 -362 53v274h100zM435 1468l-228 254l57 58l238 -185h11l240 185l56 -58l-240 -254
h-134z" />
    <glyph glyph-name="scaron" unicode="&#x161;" horiz-adv-x="880" 
d="M767 737h-96q-22 60 -52 94.5t-68 48.5t-93 14q-80 0 -127.5 -37.5t-47.5 -102.5q0 -46 19 -76t59 -56t141 -69q102 -44 157.5 -81t87 -86t31.5 -117q0 -79 -27 -133t-76 -88t-116.5 -49t-147.5 -15q-84 0 -163 12.5t-154 32.5v209h98q27 -92 80 -133.5t146 -41.5
q36 0 70.5 7.5t61.5 25t43 47.5t16 75q0 51 -20 83t-62 58.5t-148 71.5q-91 38 -146 74t-86.5 85t-31.5 116q0 82 44.5 142.5t128.5 92.5t197 32q66 0 127.5 -6.5t154.5 -25.5v-204zM367 1084l-213 315l68 57l212 -243h11l212 243l69 -57l-225 -315h-134z" />
    <glyph glyph-name="uni0162" unicode="&#x162;" horiz-adv-x="1214" 
d="M66 1365h1082v-348h-98q-22 86 -43.5 136t-45.5 76t-51.5 37t-82.5 11h-127v-1024q0 -59 6.5 -94t20 -55.5t36.5 -32t72 -22.5v-49h-457v49q30 7 53 15t37.5 19.5t24 29.5t15 49t5.5 91v1024h-126q-47 0 -77.5 -9t-56.5 -37.5t-47.5 -81t-40.5 -132.5h-99v348zM689 -99
q13 -41 13 -95q0 -103 -81 -164.5t-234 -71.5l-13 74q64 9 100 27t54 49.5t18 85.5q0 51 -9 95h152z" />
    <glyph glyph-name="uni0162" unicode="&#x21a;" horiz-adv-x="1214" 
d="M66 1365h1082v-348h-98q-22 86 -43.5 136t-45.5 76t-51.5 37t-82.5 11h-127v-1024q0 -59 6.5 -94t20 -55.5t36.5 -32t72 -22.5v-49h-457v49q30 7 53 15t37.5 19.5t24 29.5t15 49t5.5 91v1024h-126q-47 0 -77.5 -9t-56.5 -37.5t-47.5 -81t-40.5 -132.5h-99v348zM689 -99
q13 -41 13 -95q0 -103 -81 -164.5t-234 -71.5l-13 74q64 9 100 27t54 49.5t18 85.5q0 51 -9 95h152z" />
    <glyph glyph-name="uni0163" unicode="&#x163;" horiz-adv-x="693" 
d="M37 906q50 8 81 28t48.5 51.5t27.5 79t21 138.5h142v-247h323v-101h-323v-445q0 -97 8 -154.5t30 -90t50 -46.5t72 -14q40 0 75 16.5t69 47.5l45 -54q-71 -69 -134.5 -100t-131.5 -31q-129 0 -192 76.5t-63 239.5v555h-148v51zM453 -99q13 -41 13 -95q0 -103 -81 -164.5
t-234 -71.5l-13 74q64 9 100 27t54 49.5t18 85.5q0 51 -9 95h152z" />
    <glyph glyph-name="uni0163" unicode="&#x21b;" horiz-adv-x="693" 
d="M37 906q50 8 81 28t48.5 51.5t27.5 79t21 138.5h142v-247h323v-101h-323v-445q0 -97 8 -154.5t30 -90t50 -46.5t72 -14q40 0 75 16.5t69 47.5l45 -54q-71 -69 -134.5 -100t-131.5 -31q-129 0 -192 76.5t-63 239.5v555h-148v51zM453 -99q13 -41 13 -95q0 -103 -81 -164.5
t-234 -71.5l-13 74q64 9 100 27t54 49.5t18 85.5q0 51 -9 95h152z" />
    <glyph glyph-name="Tcaron" unicode="&#x164;" horiz-adv-x="1214" 
d="M66 1365h1082v-348h-98q-22 86 -43.5 136t-45.5 76t-51.5 37t-82.5 11h-127v-1024q0 -59 6.5 -94t20 -55.5t36.5 -32t72 -22.5v-49h-457v49q30 7 53 15t37.5 19.5t24 29.5t15 49t5.5 91v1024h-126q-47 0 -77.5 -9t-56.5 -37.5t-47.5 -81t-40.5 -132.5h-99v348zM534 1468
l-228 254l57 58l238 -185h11l240 185l56 -58l-240 -254h-134z" />
    <glyph glyph-name="tcaron" unicode="&#x165;" horiz-adv-x="923" 
d="M37 906q50 8 81 28t48.5 51.5t27.5 79t21 138.5h142v-247h323v-101h-323v-445q0 -97 8 -154.5t30 -90t50 -46.5t72 -14q40 0 75 16.5t69 47.5l45 -54q-71 -69 -134.5 -100t-131.5 -31q-129 0 -192 76.5t-63 239.5v555h-148v51zM855 1431q23 -64 23 -121q0 -55 -14 -96.5
t-50 -86t-122 -120.5l-55 54q41 45 57 75.5t21.5 65t5.5 87.5q0 33 -3.5 65t-12.5 77h150z" />
    <glyph glyph-name="Tbar" unicode="&#x166;" horiz-adv-x="1214" 
d="M241 627v92h272v558h-127q-47 0 -77.5 -9t-56.5 -37.5t-47.5 -81t-40.5 -132.5h-98v348h1082v-348h-98q-22 86 -43.5 136t-45.5 76t-51.5 37t-82.5 11h-127v-558h271v-92h-271v-374q0 -59 6.5 -94t20 -55.5t36.5 -32t72 -22.5v-49h-457v49q30 7 53 15t37.5 19.5t24 29.5
t15 49t5.5 91v374h-272z" />
    <glyph glyph-name="tbar" unicode="&#x167;" horiz-adv-x="723" 
d="M53 558h148v297h-148v51q50 8 81 28t48.5 51.5t27.5 79t21 138.5h142v-247h323v-101h-323v-297h268v-88h-268v-60q0 -97 8 -154.5t30 -90t50 -46.5t72 -14q40 0 75 16.5t69 47.5l45 -54q-71 -69 -134.5 -100t-131.5 -31q-129 0 -192 76.5t-63 239.5v170h-148v88z" />
    <glyph glyph-name="Utilde" unicode="&#x168;" horiz-adv-x="1327" 
d="M1125 472q0 -109 -20 -188q-19 -75 -57 -133q-35 -52 -87 -88.5t-126 -57.5t-174 -21q-121 0 -207.5 27t-143 88.5t-81.5 145t-25 212.5v658q0 78 -5 105.5t-14.5 43.5t-27.5 27.5t-67 24.5v49h420v-49q-56 -14 -78 -31.5t-30 -52.5t-8 -117v-708q0 -97 20.5 -163
t57.5 -102.5t88 -53t127 -16.5q70 0 123 24.5t88.5 74.5t48.5 123t13 196v625q0 87 -8.5 119t-28 49t-80.5 33v49h399v-49q-58 -15 -79.5 -33t-29.5 -52t-8 -116v-643zM935 1718l78 -34q-38 -82 -72.5 -126.5t-66 -61t-71.5 -16.5q-27 0 -47 5.5t-39.5 16t-60.5 38.5
q-27 18 -42.5 28t-32.5 16.5t-36 6.5q-26 0 -43.5 -10t-35.5 -35t-37 -66l-78 34q48 96 78 133.5t61.5 54t75.5 16.5q24 0 43.5 -5.5t36 -14.5t56.5 -36q29 -20 46 -31t35 -17.5t41 -6.5q32 0 57 24.5t54 86.5z" />
    <glyph glyph-name="utilde" unicode="&#x169;" horiz-adv-x="1131" 
d="M73 956h285v-509q0 -117 9 -178t27 -92t51 -52t91 -21q38 0 73 15t78 52.5t61.5 74.5t18.5 86v375q0 57 -3 86t-10 46.5t-16.5 28.5t-27 20t-56.5 19v49h285v-683q0 -77 3 -111t13 -54t31 -32.5t75 -23.5v-52l-229 -10h-61l6 164l-15 4q-83 -90 -158.5 -132t-151.5 -42
q-91 0 -150 36t-88 107.5t-29 201.5v378q0 84 -6.5 115.5t-25 50t-80.5 34.5v49zM820 1366l78 -34q-38 -82 -72.5 -126.5t-66 -61t-71.5 -16.5q-27 0 -47 5.5t-39.5 16t-60.5 38.5q-27 18 -42.5 28t-32.5 16.5t-36 6.5q-26 0 -43.5 -10t-35.5 -35t-37 -66l-78 34
q48 96 78 133.5t61.5 54t75.5 16.5q24 0 43.5 -5.5t36 -14.5t56.5 -36q29 -20 46 -31t35 -17.5t41 -6.5q32 0 57 24.5t54 86.5z" />
    <glyph glyph-name="Umacron" unicode="&#x16a;" horiz-adv-x="1327" 
d="M1125 472q0 -109 -20 -188q-19 -75 -57 -133q-35 -52 -87 -88.5t-126 -57.5t-174 -21q-121 0 -207.5 27t-143 88.5t-81.5 145t-25 212.5v658q0 78 -5 105.5t-14.5 43.5t-27.5 27.5t-67 24.5v49h420v-49q-56 -14 -78 -31.5t-30 -52.5t-8 -117v-708q0 -97 20.5 -163
t57.5 -102.5t88 -53t127 -16.5q70 0 123 24.5t88.5 74.5t48.5 123t13 196v625q0 87 -8.5 119t-28 49t-80.5 33v49h399v-49q-58 -15 -79.5 -33t-29.5 -52t-8 -116v-643zM962 1538h-558v125h558v-125z" />
    <glyph glyph-name="umacron" unicode="&#x16b;" horiz-adv-x="1131" 
d="M73 956h285v-509q0 -117 9 -178t27 -92t51 -52t91 -21q38 0 73 15t78 52.5t61.5 74.5t18.5 86v375q0 57 -3 86t-10 46.5t-16.5 28.5t-27 20t-56.5 19v49h285v-683q0 -77 3 -111t13 -54t31 -32.5t75 -23.5v-52l-229 -10h-61l6 164l-15 4q-83 -90 -158.5 -132t-151.5 -42
q-91 0 -150 36t-88 107.5t-29 201.5v378q0 84 -6.5 115.5t-25 50t-80.5 34.5v49zM830 1188h-528v125h528v-125z" />
    <glyph glyph-name="Ubreve" unicode="&#x16c;" horiz-adv-x="1327" 
d="M1125 472q0 -109 -20 -188q-19 -75 -57 -133q-35 -52 -87 -88.5t-126 -57.5t-174 -21q-121 0 -207.5 27t-143 88.5t-81.5 145t-25 212.5v658q0 78 -5 105.5t-14.5 43.5t-27.5 27.5t-67 24.5v49h420v-49q-56 -14 -78 -31.5t-30 -52.5t-8 -117v-708q0 -97 20.5 -163
t57.5 -102.5t88 -53t127 -16.5q70 0 123 24.5t88.5 74.5t48.5 123t13 196v625q0 87 -8.5 119t-28 49t-80.5 33v49h399v-49q-58 -15 -79.5 -33t-29.5 -52t-8 -116v-643zM995 1761q-26 -137 -105 -204t-215 -67q-127 0 -202 67t-102 204l77 24q25 -65 55.5 -101t69.5 -50.5
t106 -14.5q66 0 107.5 14.5t74 50.5t57.5 101z" />
    <glyph glyph-name="ubreve" unicode="&#x16d;" horiz-adv-x="1131" 
d="M73 956h285v-509q0 -117 9 -178t27 -92t51 -52t91 -21q38 0 73 15t78 52.5t61.5 74.5t18.5 86v375q0 57 -3 86t-10 46.5t-16.5 28.5t-27 20t-56.5 19v49h285v-683q0 -77 3 -111t13 -54t31 -32.5t75 -23.5v-52l-229 -10h-61l6 164l-15 4q-83 -90 -158.5 -132t-151.5 -42
q-91 0 -150 36t-88 107.5t-29 201.5v378q0 84 -6.5 115.5t-25 50t-80.5 34.5v49zM868 1387q-26 -135 -101.5 -204t-208.5 -69q-124 0 -196 68.5t-98 204.5l77 24q25 -66 56.5 -103t69.5 -51t95 -14q56 0 97 14.5t74.5 51.5t57.5 102z" />
    <glyph glyph-name="Uring" unicode="&#x16e;" horiz-adv-x="1327" 
d="M1125 472q0 -109 -20 -188q-19 -75 -57 -133q-35 -52 -87 -88.5t-126 -57.5t-174 -21q-121 0 -207.5 27t-143 88.5t-81.5 145t-25 212.5v658q0 78 -5 105.5t-14.5 43.5t-27.5 27.5t-67 24.5v49h420v-49q-56 -14 -78 -31.5t-30 -52.5t-8 -117v-708q0 -97 20.5 -163
t57.5 -102.5t88 -53t127 -16.5q70 0 123 24.5t88.5 74.5t48.5 123t13 196v625q0 87 -8.5 119t-28 49t-80.5 33v49h399v-49q-58 -15 -79.5 -33t-29.5 -52t-8 -116v-643zM678 1424q-108 0 -164.5 50t-56.5 147q0 66 29.5 112.5t81.5 69t118 22.5q110 0 167 -50t57 -145
q0 -99 -60.5 -152.5t-171.5 -53.5zM562 1628q0 -67 31 -104.5t93 -37.5q58 0 88.5 35t30.5 98q0 70 -32.5 107t-88.5 37q-60 0 -91 -35t-31 -100z" />
    <glyph glyph-name="uring" unicode="&#x16f;" horiz-adv-x="1131" 
d="M73 956h285v-509q0 -117 9 -178t27 -92t51 -52t91 -21q38 0 73 15t78 52.5t61.5 74.5t18.5 86v375q0 57 -3 86t-10 46.5t-16.5 28.5t-27 20t-56.5 19v49h285v-683q0 -77 3 -111t13 -54t31 -32.5t75 -23.5v-52l-229 -10h-61l6 164l-15 4q-83 -90 -158.5 -132t-151.5 -42
q-91 0 -150 36t-88 107.5t-29 201.5v378q0 84 -6.5 115.5t-25 50t-80.5 34.5v49zM560 1071q-108 0 -164.5 50t-56.5 147q0 66 29.5 112.5t81.5 69t118 22.5q110 0 167 -50t57 -145q0 -99 -60.5 -152.5t-171.5 -53.5zM444 1275q0 -67 31 -104.5t93 -37.5q58 0 88.5 35
t30.5 98q0 70 -32.5 107t-88.5 37q-60 0 -91 -35t-31 -100z" />
    <glyph glyph-name="Uhungarumlaut" unicode="&#x170;" horiz-adv-x="1327" 
d="M1125 472q0 -109 -20 -188q-19 -75 -57 -133q-35 -52 -87 -88.5t-126 -57.5t-174 -21q-121 0 -207.5 27t-143 88.5t-81.5 145t-25 212.5v658q0 78 -5 105.5t-14.5 43.5t-27.5 27.5t-67 24.5v49h420v-49q-56 -14 -78 -31.5t-30 -52.5t-8 -117v-708q0 -97 20.5 -163
t57.5 -102.5t88 -53t127 -16.5q70 0 123 24.5t88.5 74.5t48.5 123t13 196v625q0 87 -8.5 119t-28 49t-80.5 33v49h399v-49q-58 -15 -79.5 -33t-29.5 -52t-8 -116v-643zM1105 1782v-50l-332 -264l-56 59l237 255h151zM774 1782v-50l-332 -264l-56 59l237 255h151z" />
    <glyph glyph-name="uhungarumlaut" unicode="&#x171;" horiz-adv-x="1131" 
d="M73 956h285v-509q0 -117 9 -178t27 -92t51 -52t91 -21q38 0 73 15t78 52.5t61.5 74.5t18.5 86v375q0 57 -3 86t-10 46.5t-16.5 28.5t-27 20t-56.5 19v49h285v-683q0 -77 3 -111t13 -54t31 -32.5t75 -23.5v-52l-229 -10h-61l6 164l-15 4q-83 -90 -158.5 -132t-151.5 -42
q-91 0 -150 36t-88 107.5t-29 201.5v378q0 84 -6.5 115.5t-25 50t-80.5 34.5v49zM961 1442v-50l-297 -322l-66 52l226 320h137zM657 1442v-50l-297 -322l-66 52l226 320h137z" />
    <glyph glyph-name="Uogonek" unicode="&#x172;" horiz-adv-x="1327" 
d="M1125 472q0 -146 -37.5 -241.5t-114.5 -159.5q-176 -149 -176 -295q0 -59 25.5 -87.5t76.5 -28.5q33 0 57.5 9.5t46.5 24.5l31 -68q-37 -25 -80 -40.5t-98 -15.5q-39 0 -74.5 9.5t-62.5 30.5t-43.5 54.5t-16.5 80.5q0 67 39.5 133t119.5 124q-70 -18 -157 -18
q-121 0 -207.5 27t-143 88.5t-81.5 145t-25 212.5v658q0 78 -5 105.5t-14.5 43.5t-27.5 27.5t-67 24.5v49h420v-49q-56 -14 -78 -31.5t-30 -52.5t-8 -117v-708q0 -97 20.5 -163t57.5 -102.5t88 -53t127 -16.5q70 0 123 24.5t88.5 74.5t48.5 123t13 196v625q0 87 -8.5 119
t-28 49t-80.5 33v49h399v-49q-58 -15 -79.5 -33t-29.5 -52t-8 -116v-643z" />
    <glyph glyph-name="uogonek" unicode="&#x173;" horiz-adv-x="1131" 
d="M73 956h285v-509q0 -117 9 -178t27 -92t51 -52t91 -21q38 0 73 15t78 52.5t61.5 74.5t18.5 86v375q0 57 -3 86t-10 46.5t-16.5 28.5t-27 20t-56.5 19v49h285v-683q0 -77 3 -111t13 -54t31 -32.5t75 -23.5v-52l-117 -2q-61 -56 -91 -113.5t-30 -114.5q0 -56 25.5 -83
t76.5 -27q33 0 57.5 9.5t46.5 24.5l31 -68q-37 -25 -80 -40.5t-98 -15.5q-39 0 -74.5 9.5t-62.5 30.5t-43.5 54.5t-16.5 80.5q0 65 43 129t125 122l-82 -1l6 159l-15 4q-83 -90 -158.5 -132t-151.5 -42q-91 0 -150 36t-88 107.5t-29 201.5v378q0 84 -6.5 115.5t-25 50
t-80.5 34.5v49z" />
    <glyph glyph-name="Wcircumflex" unicode="&#x174;" horiz-adv-x="1887" 
d="M941 1110l-320 -1117h-162l-291 1086q-18 68 -33 111t-30 67.5t-32.5 37t-50.5 21.5v49h428v-49q-62 -12 -86.5 -36t-24.5 -67q0 -35 9 -83t25 -109l201 -790l322 1134h168l261 -1135l236 763q43 139 43 198q0 61 -25.5 88t-84.5 37v49h394v-49q-30 -10 -48 -22.5
t-34.5 -34t-36 -66.5t-45.5 -121l-364 -1079h-143zM1037 1780l228 -254l-57 -58l-238 185h-11l-240 -185l-56 58l240 254h134z" />
    <glyph glyph-name="wcircumflex" unicode="&#x175;" horiz-adv-x="1586" 
d="M798 747l-262 -752h-139l-240 742q-23 72 -38.5 101.5t-33 44t-56.5 24.5v49h395v-49q-58 -12 -78.5 -31.5t-20.5 -58.5q0 -27 6 -56.5t18 -68.5l157 -510l257 774h141l218 -774l176 489q14 38 23 72.5t9 64.5q0 42 -22.5 65t-76.5 34v49h349v-49q-28 -7 -42 -14.5
t-27.5 -22t-30 -45t-41.5 -94.5l-289 -736h-135zM887 1442l214 -315l-69 -57l-212 243h-11l-212 -243l-68 57l224 315h134z" />
    <glyph glyph-name="Ycircumflex" unicode="&#x176;" horiz-adv-x="1168" 
d="M482 573l-276 513q-50 93 -76 133t-52 63t-60 34v49h426v-49q-94 -11 -94 -81q0 -29 13.5 -65t48.5 -102l200 -381l197 348q40 71 56.5 116.5t16.5 83.5q0 36 -21.5 56.5t-63.5 24.5v49h379v-49q-41 -15 -72 -41.5t-63 -71.5t-94 -152l-278 -474v-324q0 -57 6 -92t20 -56
t37 -33t72 -23v-49h-457v49q48 10 71 21.5t37 33t20.5 56.5t6.5 93v320zM687 1780l228 -254l-57 -58l-238 185h-11l-240 -185l-56 58l240 254h134z" />
    <glyph glyph-name="ycircumflex" unicode="&#x177;" horiz-adv-x="1032" 
d="M520 -82q-55 -124 -107 -201t-114.5 -116t-148.5 -39q-55 0 -124 13v198h89q12 -41 30 -57t52 -16q30 0 53.5 11.5t49 39.5t60 86t77.5 147l-280 753q-27 73 -43.5 102t-35.5 44t-58 24v49h407v-49q-47 -11 -66 -21.5t-28 -27t-9 -42.5q0 -27 6.5 -56t20.5 -68l178 -501
l200 480q17 40 26.5 73.5t9.5 62.5q0 43 -23.5 65t-81.5 35v49h374v-49q-39 -8 -60 -24.5t-42 -52t-50 -99.5zM588 1442l214 -315l-69 -57l-212 243h-11l-212 -243l-68 57l224 315h134z" />
    <glyph glyph-name="Ydieresis" unicode="&#x178;" horiz-adv-x="1168" 
d="M482 573l-276 513q-50 93 -76 133t-52 63t-60 34v49h426v-49q-94 -11 -94 -81q0 -29 13.5 -65t48.5 -102l200 -381l197 348q40 71 56.5 116.5t16.5 83.5q0 36 -21.5 56.5t-63.5 24.5v49h379v-49q-41 -15 -72 -41.5t-63 -71.5t-94 -152l-278 -474v-324q0 -57 6 -92t20 -56
t37 -33t72 -23v-49h-457v49q48 10 71 21.5t37 33t20.5 56.5t6.5 93v320zM882 1690v-176h-167v176h167zM513 1690v-176h-167v176h167z" />
    <glyph glyph-name="Zacute" unicode="&#x179;" horiz-adv-x="1101" 
d="M327 92h361q67 0 99.5 12.5t53.5 39t38 74.5t41 149h98v-367h-924v49l685 1224h-363q-39 0 -61.5 -6.5t-40.5 -20t-35.5 -39.5t-35 -71.5t-36.5 -113.5h-98v343h902v-48zM831 1782v-50l-382 -264l-56 57l241 257h197z" />
    <glyph glyph-name="zacute" unicode="&#x17a;" horiz-adv-x="931" 
d="M851 290v-290h-770v49l548 826h-271q-50 0 -79 -18t-55 -60t-50 -113h-87v272h758v-50l-547 -825h263q52 0 78 8t45 25.5t37 55.5t43 120h87zM719 1442v-50l-317 -322l-65 52l207 320h175z" />
    <glyph glyph-name="Zdotaccent" unicode="&#x17b;" horiz-adv-x="1101" 
d="M327 92h361q67 0 99.5 12.5t53.5 39t38 74.5t41 149h98v-367h-924v49l685 1224h-363q-39 0 -61.5 -6.5t-40.5 -20t-35.5 -39.5t-35 -71.5t-36.5 -113.5h-98v343h902v-48zM642 1699v-194h-184v194h184z" />
    <glyph glyph-name="zdotaccent" unicode="&#x17c;" horiz-adv-x="931" 
d="M851 290v-290h-770v49l548 826h-271q-50 0 -79 -18t-55 -60t-50 -113h-87v272h758v-50l-547 -825h263q52 0 78 8t45 25.5t37 55.5t43 120h87zM558 1348v-194h-184v194h184z" />
    <glyph glyph-name="Zcaron" unicode="&#x17d;" horiz-adv-x="1101" 
d="M327 92h361q67 0 99.5 12.5t53.5 39t38 74.5t41 149h98v-367h-924v49l685 1224h-363q-39 0 -61.5 -6.5t-40.5 -20t-35.5 -39.5t-35 -71.5t-36.5 -113.5h-98v343h902v-48zM477 1468l-228 254l57 58l238 -185h11l240 185l56 -58l-240 -254h-134z" />
    <glyph glyph-name="zcaron" unicode="&#x17e;" horiz-adv-x="931" 
d="M851 290v-290h-770v49l548 826h-271q-50 0 -79 -18t-55 -60t-50 -113h-87v272h758v-50l-547 -825h263q52 0 78 8t45 25.5t37 55.5t43 120h87zM393 1084l-213 315l68 57l212 -243h11l212 243l69 -57l-225 -315h-134z" />
    <glyph glyph-name="longs" unicode="&#x17f;" horiz-adv-x="572" 
d="M372 250q0 -86 8 -119.5t30.5 -51t73.5 -30.5v-49h-397v49q44 12 63 23t29.5 28t15.5 49t5 101v605h-121v51q39 7 51 10t23.5 10t20 20t15 38.5t10.5 71.5q9 109 39.5 177t89 116t125 67.5t156.5 19.5q79 0 134 -11v-181h-99q-19 59 -44.5 83.5t-71.5 24.5
q-33 0 -55.5 -9.5t-42 -29t-33 -51.5t-19.5 -80t-6 -130v-802z" />
    <glyph glyph-name="florin" unicode="&#x192;" horiz-adv-x="1148" 
d="M466 855h-149l12 51q66 3 95 19t49 50t39 100q53 180 163.5 270.5t281.5 90.5q98 0 169 -16l-39 -170h-88q-14 57 -36.5 82t-66.5 25q-57 0 -96.5 -31.5t-67.5 -93.5t-52 -167l-25 -109h227l-22 -101h-228l-203 -934q-38 -175 -136 -268t-249 -93q-76 0 -148 16l39 170
h67q11 -51 32.5 -79t60.5 -28q41 0 68 26.5t49 86t49 179.5z" />
    <glyph glyph-name="Aringacute" unicode="&#x1fa;" horiz-adv-x="1276" 
d="M959 1946v-50l-387 -214l-49 68l239 196h197zM790 1280l309 -1014q24 -78 42.5 -119.5t44.5 -64t71 -33.5v-49h-461v49q50 10 74.5 22t36.5 33.5t12 57.5q0 34 -8 73.5t-23 88.5l-37 129h-466l-34 -98q-16 -45 -24.5 -74t-13.5 -57t-5 -50q0 -60 30.5 -88t93.5 -37v-49
h-426v49q57 13 96.5 63t82.5 162l380 1004q-52 20 -81 68t-29 109q0 66 29.5 112.5t81.5 69t118 22.5q110 0 167 -50t57 -145q0 -66 -31 -114.5t-87 -69.5zM560 1462q0 -67 31 -104.5t93 -37.5q58 0 88.5 35t30.5 98q0 70 -32.5 107t-88.5 37q-60 0 -91 -35t-31 -100z
M412 540h418l-190 645zM1276 1365z" />
    <glyph glyph-name="aringacute" unicode="&#x1fb;" horiz-adv-x="1000" 
d="M675 143l-15 4q-87 -89 -163.5 -126t-162.5 -37q-76 0 -134 29.5t-89 83t-31 123.5q0 146 144.5 225.5t433.5 92.5v65q0 104 -20 164t-63 88t-115 28q-78 0 -125.5 -41t-71.5 -123h-131v130q96 50 160 73.5t128 37t130 13.5q99 0 159 -31.5t90 -96.5t30 -196v-348
q0 -74 1 -104.5t6 -56.5t15 -41.5t29.5 -26.5t63.5 -23v-49h-274zM658 456q-203 -2 -304 -54t-101 -157q0 -57 23 -90t58 -45.5t83 -12.5q68 0 123.5 33t86.5 84t31 101v141zM484 1071q-108 0 -164.5 50t-56.5 147q0 66 29.5 112.5t81.5 69t118 22.5q110 0 167 -50t57 -145
q0 -99 -60.5 -152.5t-171.5 -53.5zM368 1275q0 -67 31 -104.5t93 -37.5q58 0 88.5 35t30.5 98q0 70 -32.5 107t-88.5 37q-60 0 -91 -35t-31 -100zM733 1882v-50l-317 -322l-65 52l207 320h175z" />
    <glyph glyph-name="AEacute" unicode="&#x1fc;" horiz-adv-x="1774" 
d="M1652 1365v-302h-98q-15 49 -31 86t-33 62t-37.5 40t-48.5 20.5t-67 5.5h-342l32 -524h208q44 0 69 12.5t41.5 42.5t31.5 94h94v-384h-94q-14 60 -31 90.5t-40.5 43.5t-70.5 13h-202l39 -577h260q49 0 79.5 8.5t52.5 29t39 53.5t28.5 68.5t31.5 103.5h99l-19 -351h-883
v49q47 10 71 25.5t35.5 43t11.5 75.5q0 30 -2 57l-14 203h-430l-51 -98q-14 -27 -35.5 -73.5t-29 -73t-7.5 -46.5q0 -59 24.5 -82t81.5 -31v-49h-415v49q59 21 105.5 74t96.5 150l568 1092h882zM857 540l-30 501l-4 98q-1 43 -1 72h-10l-340 -671h385zM1419 1782v-50
l-382 -264l-56 57l241 257h197z" />
    <glyph glyph-name="aeacute" unicode="&#x1fd;" horiz-adv-x="1541" 
d="M828 493v-18q0 -118 26.5 -198.5t87 -126t157.5 -45.5q82 0 147.5 30.5t130.5 99.5l61 -65q-64 -67 -117.5 -105t-117.5 -59.5t-141 -21.5q-129 0 -218 48t-137 145h-7q-70 -73 -125 -113t-114 -60t-127 -20q-76 0 -134 29.5t-89 83t-31 123.5q0 146 144.5 225.5
t433.5 92.5v65q0 104 -20 164t-63 88t-115 28q-78 0 -125.5 -41t-71.5 -123h-131v130q96 50 160 73.5t128 37t130 13.5q88 0 140 -33t84 -106h12q58 70 130 104.5t164 34.5q101 0 172 -32t113.5 -87.5t66 -140t26.5 -220.5h-630zM1270 576q-6 108 -27 176.5t-63 105
t-110 36.5q-103 0 -164.5 -82.5t-72.5 -235.5h437zM658 456q-203 -2 -304 -54t-101 -157q0 -57 23 -90t58 -45.5t83 -12.5q68 0 123.5 33t86.5 84t31 101v141zM1023 1442v-50l-317 -322l-65 52l207 320h175z" />
    <glyph glyph-name="Oslashacute" unicode="&#x1fe;" horiz-adv-x="1338" 
d="M101 -135l169 277q-72 83 -111.5 214.5t-39.5 314.5q0 223 68 383t194.5 243.5t293.5 83.5q93 0 166.5 -21.5t136.5 -63.5l121 203h138l-170 -277q74 -86 113 -216.5t39 -305.5q0 -234 -70 -395t-197.5 -241t-297.5 -80q-175 0 -297 83l-119 -202h-137zM379 310l520 859
q-45 64 -103.5 94t-127.5 30q-90 0 -154.5 -42t-107 -119.5t-62 -187.5t-19.5 -245q0 -235 54 -389zM958 1053l-520 -858q87 -123 238 -123q109 0 185 69.5t114 203.5t38 313q0 238 -55 395zM950 1782v-50l-382 -264l-56 57l241 257h197z" />
    <glyph glyph-name="oslashacute" unicode="&#x1ff;" horiz-adv-x="1087" 
d="M763 929l102 163h131l-142 -226q128 -125 128 -375q0 -166 -55 -280t-156 -170.5t-239 -56.5q-120 0 -209 42l-102 -161h-130l141 222q-127 123 -127 382q0 165 57.5 279t157.5 169.5t228 55.5q127 0 215 -44zM330 227l366 596q-31 36 -70 53t-83 17q-121 0 -186 -104.5
t-65 -298.5q0 -150 38 -263zM757 728l-368 -597q60 -68 158 -68q67 0 114 32.5t76.5 87.5t43 127.5t13.5 151.5q0 87 -9 149t-28 117zM796 1442v-50l-317 -322l-65 52l207 320h175z" />
    <glyph glyph-name="uni0218" unicode="&#x218;" horiz-adv-x="1016" 
d="M212 311q20 -88 54 -139t88 -75.5t139 -24.5q117 0 179.5 61t62.5 178q0 75 -26 126t-85 96t-180 105q-117 58 -185 113.5t-101.5 120.5t-33.5 142q0 112 52.5 194.5t154 127.5t232.5 45q76 0 148.5 -8t181.5 -36v-270h-99q-23 88 -58 137t-82 68.5t-122 19.5
q-65 0 -116.5 -24t-81.5 -72.5t-30 -115.5q0 -71 25.5 -120t79.5 -91t160 -94q128 -64 198.5 -119t110 -125.5t39.5 -164.5q0 -105 -33 -177.5t-91.5 -118t-140 -66t-178.5 -20.5q-157 0 -362 53v274h100zM603 -99q13 -41 13 -95q0 -103 -81 -164.5t-234 -71.5l-13 74
q64 9 100 27t54 49.5t18 85.5q0 51 -9 95h152z" />
    <glyph glyph-name="uni0219" unicode="&#x219;" horiz-adv-x="880" 
d="M767 737h-96q-22 60 -52 94.5t-68 48.5t-93 14q-80 0 -127.5 -37.5t-47.5 -102.5q0 -46 19 -76t59 -56t141 -69q102 -44 157.5 -81t87 -86t31.5 -117q0 -79 -27 -133t-76 -88t-116.5 -49t-147.5 -15q-84 0 -163 12.5t-154 32.5v209h98q27 -92 80 -133.5t146 -41.5
q36 0 70.5 7.5t61.5 25t43 47.5t16 75q0 51 -20 83t-62 58.5t-148 71.5q-91 38 -146 74t-86.5 85t-31.5 116q0 82 44.5 142.5t128.5 92.5t197 32q66 0 127.5 -6.5t154.5 -25.5v-204zM528 -99q13 -41 13 -95q0 -103 -81 -164.5t-234 -71.5l-13 74q64 9 100 27t54 49.5
t18 85.5q0 51 -9 95h152z" />
    <glyph glyph-name="circumflex" unicode="&#x2c6;" horiz-adv-x="583" 
d="M364 1442l214 -315l-69 -57l-212 243h-11l-212 -243l-68 57l224 315h134z" />
    <glyph glyph-name="caron" unicode="&#x2c7;" horiz-adv-x="583" 
d="M219 1084l-213 315l68 57l212 -243h11l212 243l69 -57l-225 -315h-134z" />
    <glyph glyph-name="breve" unicode="&#x2d8;" horiz-adv-x="583" 
d="M594 1387q-26 -135 -101.5 -204t-208.5 -69q-124 0 -196 68.5t-98 204.5l77 24q25 -66 56.5 -103t69.5 -51t95 -14q56 0 97 14.5t74.5 51.5t57.5 102z" />
    <glyph glyph-name="dotaccent" unicode="&#x2d9;" horiz-adv-x="583" 
d="M383 1348v-194h-184v194h184z" />
    <glyph glyph-name="ring" unicode="&#x2da;" horiz-adv-x="583" 
d="M286 1071q-108 0 -164.5 50t-56.5 147q0 66 29.5 112.5t81.5 69t118 22.5q110 0 167 -50t57 -145q0 -99 -60.5 -152.5t-171.5 -53.5zM170 1275q0 -67 31 -104.5t93 -37.5q58 0 88.5 35t30.5 98q0 70 -32.5 107t-88.5 37q-60 0 -91 -35t-31 -100z" />
    <glyph glyph-name="ogonek" unicode="&#x2db;" horiz-adv-x="583" 
d="M411 11q-69 -60 -103 -120.5t-34 -120.5q0 -56 25.5 -83t76.5 -27q33 0 57.5 9.5t46.5 24.5l31 -68q-37 -25 -80 -40.5t-98 -15.5q-39 0 -74.5 9.5t-62.5 30.5t-43.5 54.5t-16.5 80.5q0 25 6 49t21 52.5t38.5 56.5t56 56t70.5 52h83z" />
    <glyph glyph-name="tilde" unicode="&#x2dc;" horiz-adv-x="583" 
d="M546 1366l78 -34q-38 -82 -72.5 -126.5t-66 -61t-71.5 -16.5q-27 0 -47 5.5t-39.5 16t-60.5 38.5q-27 18 -42.5 28t-32.5 16.5t-36 6.5q-26 0 -43.5 -10t-35.5 -35t-37 -66l-78 34q48 96 78 133.5t61.5 54t75.5 16.5q24 0 43.5 -5.5t36 -14.5t56.5 -36q29 -20 46 -31
t35 -17.5t41 -6.5q32 0 57 24.5t54 86.5z" />
    <glyph glyph-name="hungarumlaut" unicode="&#x2dd;" horiz-adv-x="583" 
d="M663 1442v-50l-297 -322l-66 52l226 320h137zM359 1442v-50l-297 -322l-66 52l226 320h137z" />
    <glyph glyph-name="gravecomb" unicode="&#x300;" horiz-adv-x="0" 
d="M-340 1442l207 -320l-66 -52l-316 322v50h175z" />
    <glyph glyph-name="acutecomb" unicode="&#x301;" horiz-adv-x="0" 
d="M-57 1442v-50l-317 -322l-65 52l207 320h175z" />
    <glyph glyph-name="uni0302" unicode="&#x302;" horiz-adv-x="0" 
d="M-215 1442l215 -315l-70 -57l-212 243h-11l-212 -243l-68 57l224 315h134z" />
    <glyph glyph-name="tildecomb" unicode="&#x303;" horiz-adv-x="0" 
d="M-32 1366l78 -34q-38 -82 -72.5 -126.5t-66 -61t-71.5 -16.5q-27 0 -47 5.5t-39.5 16t-60.5 38.5q-27 18 -42.5 28t-32.5 16.5t-36 6.5q-26 0 -43.5 -10t-35.5 -35t-37 -66l-78 34q48 96 78 133.5t61.5 54t75.5 16.5q24 0 43.5 -5.5t36 -14.5t56.5 -36q29 -20 46 -31
t35 -17.5t41 -6.5q32 0 57 24.5t54 86.5z" />
    <glyph glyph-name="uni0304" unicode="&#x304;" horiz-adv-x="0" 
d="M-23 1188h-528v125h528v-125z" />
    <glyph glyph-name="uni0306" unicode="&#x306;" horiz-adv-x="0" 
d="M16 1387q-26 -135 -101.5 -204t-208.5 -69q-124 0 -196 68.5t-98 204.5l77 24q25 -66 56.5 -103t69.5 -51t95 -14q56 0 97 14.5t74.5 51.5t57.5 102z" />
    <glyph glyph-name="uni0307" unicode="&#x307;" horiz-adv-x="0" 
d="M-195 1348v-194h-184v194h184z" />
    <glyph glyph-name="uni0308" unicode="&#x308;" horiz-adv-x="0" 
d="M-34 1339v-176h-167v176h167zM-373 1339v-176h-167v176h167z" />
    <glyph glyph-name="uni030A" unicode="&#x30a;" horiz-adv-x="0" 
d="M-292 1071q-108 0 -164.5 50t-56.5 147q0 66 29.5 112.5t81.5 69t118 22.5q110 0 167 -50t57 -145q0 -99 -60.5 -152.5t-171.5 -53.5zM-408 1275q0 -67 31 -104.5t93 -37.5q58 0 88.5 35t30.5 98q0 70 -32.5 107t-88.5 37q-60 0 -91 -35t-31 -100z" />
    <glyph glyph-name="uni030B" unicode="&#x30b;" horiz-adv-x="0" 
d="M85 1442v-50l-297 -322l-66 52l226 320h137zM-219 1442v-50l-297 -322l-66 52l226 320h137z" />
    <glyph glyph-name="uni030C" unicode="&#x30c;" horiz-adv-x="0" 
d="M-359 1084l-213 315l68 57l212 -243h11l212 243l69 -57l-225 -315h-134z" />
    <glyph glyph-name="uni0315" unicode="&#x315;" horiz-adv-x="583" 
d="M355 1431q23 -66 23 -129q0 -57 -17.5 -102.5t-55.5 -92t-121 -121.5l-55 54q47 58 66 113t19 128q0 32 -2.5 60t-13.5 90h157z" />
    <glyph glyph-name="uni0326" unicode="&#x326;" horiz-adv-x="0" 
d="M-205 -99q13 -41 13 -95q0 -103 -81 -164.5t-234 -71.5l-13 74q64 9 100 27t54 49.5t18 85.5q0 51 -9 95h152z" />
    <glyph glyph-name="uni0327" unicode="&#x327;" horiz-adv-x="0" 
d="M-57 37l-157 -117q10 -22 17 -53t7 -59q0 -103 -81.5 -165.5t-233.5 -72.5l-13 74q65 8 104 30t54 51.5t15 71.5q0 26 -6 52v40l254 177z" />
    <glyph glyph-name="uni0328" unicode="&#x328;" horiz-adv-x="0" 
d="M-167 11q-69 -60 -103 -120.5t-34 -120.5q0 -56 25.5 -83t76.5 -27q33 0 57.5 9.5t46.5 24.5l31 -68q-37 -25 -80 -40.5t-98 -15.5q-39 0 -74.5 9.5t-62.5 30.5t-43.5 54.5t-16.5 80.5q0 25 6 49t21 52.5t38.5 56.5t56 56t70.5 52h83z" />
    <glyph glyph-name="uni0344" unicode="&#x344;" horiz-adv-x="0" 
d="M-130 1487v-50l-211 -377l-73 36l139 391h145zM47 1339v-176h-143v176h143zM-481 1339v-176h-143v176h143z" />
    <glyph glyph-name="uni0374" unicode="&#x374;" horiz-adv-x="400" 
d="M358 1507v-50l-192 -368l-96 45l149 373h139z" />
    <glyph glyph-name="uni0375" unicode="&#x375;" horiz-adv-x="400" 
d="M42 -442v50l192 368l96 -45l-149 -373h-139z" />
    <glyph glyph-name="uni037E" unicode="&#x37e;" horiz-adv-x="540" 
d="M358 232q14 -70 14 -138q0 -70 -24 -128t-76.5 -115.5t-144.5 -126.5l-54 61q51 48 74 86.5t33 87.5t10 123q0 76 -7 150h175zM370 903v-234h-200v234h200z" />
    <glyph glyph-name="tonos" unicode="&#x384;" horiz-adv-x="583" 
d="M493 1487v-50l-228 -377l-73 36l124 391h177z" />
    <glyph glyph-name="dieresistonos" unicode="&#x385;" horiz-adv-x="583" 
d="M448 1487v-50l-211 -377l-73 36l139 391h145zM625 1339v-176h-143v176h143zM97 1339v-176h-143v176h143z" />
    <glyph glyph-name="Alphatonos" unicode="&#x386;" horiz-adv-x="1267" 
d="M796 0v49q74 13 98.5 39t24.5 74q0 54 -31 162l-37 129h-466l-34 -98q-42 -121 -42 -181q0 -107 124 -125v-49h-427v49q96 11 178 225l417 1107h158l340 -1115q39 -129 70 -166t88 -51v-49h-461zM375 1381v-50l-238 -397l-73 36l134 411h177zM412 540h418l-190 645z" />
    <glyph glyph-name="anoteleia" unicode="&#x387;" horiz-adv-x="500" 
d="M350 1055v-234h-200v234h200z" />
    <glyph glyph-name="Epsilontonos" unicode="&#x388;" horiz-adv-x="1446" 
d="M1314 1365v-302h-98q-44 137 -87 175.5t-130 38.5h-316v-524h222q60 0 91 30t51 119h86v-384h-86q-23 92 -52 119.5t-90 27.5h-222v-577h319q112 0 151 56t80 207h99l-19 -351h-934v49q73 18 95 48t22 153v865q0 118 -20 151.5t-77 49.5v49h915zM311 1381v-50l-238 -397
l-73 36l134 411h177z" />
    <glyph glyph-name="Etatonos" unicode="&#x389;" horiz-adv-x="1664" 
d="M1426 250q0 -119 21 -151t95 -50v-49h-419v49q71 17 93.5 46.5t22.5 154.5v419h-556v-419q0 -125 23.5 -154.5t93.5 -46.5v-49h-421v49q73 18 95 48t22 153v865q0 118 -20 151.5t-77 49.5v49h401v-49q-69 -17 -93 -44.5t-24 -156.5v-355h556v355q0 119 -21 151t-95 50v49
h419v-49q-74 -18 -95 -48.5t-21 -152.5v-865zM311 1381v-50l-238 -397l-73 36l134 411h177z" />
    <glyph glyph-name="Iotatonos" unicode="&#x38a;" horiz-adv-x="922" 
d="M684 250q0 -125 23.5 -154.5t93.5 -46.5v-49h-422v49q73 18 95 48t22 153v865q0 118 -20 151.5t-77 49.5v49h402v-49q-69 -17 -93 -44.5t-24 -156.5v-865zM311 1381v-50l-238 -397l-73 36l134 411h177z" />
    <glyph glyph-name="Omicrontonos" unicode="&#x38c;" horiz-adv-x="1507" 
d="M832 -16q-258 0 -392.5 176.5t-134.5 510.5q0 341 149.5 525.5t397.5 184.5q262 0 399 -175.5t137 -505.5q0 -342 -147 -529t-409 -187zM509 699q0 -306 88 -466.5t256 -160.5q163 0 247 156.5t84 429.5q0 312 -89 473.5t-249 161.5q-164 0 -250.5 -151t-86.5 -443z
M311 1381v-50l-238 -397l-73 36l134 411h177z" />
    <glyph glyph-name="Upsilontonos" unicode="&#x38e;" horiz-adv-x="1594" 
d="M851 388q0 183 -96 468t-150 348t-103 63q-63 0 -120 -53l-47 63q81 65 130 84.5t117 19.5q88 0 148.5 -48t119 -206t115.5 -474h14q38 168 118 379t161.5 280t184.5 69q55 0 109 -23v-184h-91q-22 50 -67 50q-58 0 -112.5 -70t-149 -323.5t-94.5 -442.5v-135
q0 -101 22 -144t113 -60v-49h-457v49q94 20 114.5 63.5t20.5 140.5v135zM311 1381v-50l-238 -397l-73 36l134 411h177z" />
    <glyph glyph-name="Omegatonos" unicode="&#x38f;" horiz-adv-x="1549" 
d="M575 155v24q-250 300 -250 619q0 262 150 422.5t391 160.5q254 0 384.5 -143.5t130.5 -409.5q0 -343 -260 -654v-19h91q96 0 127.5 22t48.5 106h98l-30 -283h-463v144q187 325 187 658q0 491 -335 491q-150 0 -234.5 -126.5t-84.5 -359.5q0 -341 186 -663v-144h-461
l-30 282h98q18 -85 45 -106t124 -21h87zM311 1381v-50l-238 -397l-73 36l134 411h177z" />
    <glyph glyph-name="iotadieresistonos" unicode="&#x390;" horiz-adv-x="582" 
d="M178 956h172v-706q0 -161 112 -161q53 0 100 40l41 -58q-105 -87 -209 -87q-216 0 -216 253v719zM448 1487v-50l-211 -377l-73 36l139 391h145zM625 1339v-176h-143v176h143zM97 1339v-176h-143v176h143z" />
    <glyph glyph-name="Alpha" unicode="&#x391;" horiz-adv-x="1276" 
d="M796 0v49q50 10 74.5 22t36.5 33.5t12 57.5q0 34 -8 73.5t-23 88.5l-37 129h-466l-34 -98q-26 -74 -34 -112t-8 -69q0 -60 30.5 -88t93.5 -37v-49h-427v49q56 9 97.5 65t80.5 160l417 1107h158l340 -1115q24 -78 42.5 -119t44.5 -64t71 -34v-49h-461zM412 540h418
l-190 645z" />
    <glyph glyph-name="Beta" unicode="&#x392;" horiz-adv-x="1252" 
d="M121 0v49q62 16 83 35.5t27.5 55.5t6.5 110v865q0 69 -5 100.5t-16.5 49t-30.5 28t-65 23.5v49h547q159 0 255.5 -34t143.5 -100.5t47 -171.5q0 -87 -33.5 -151t-87.5 -106t-139 -78v-9q136 -41 206 -126.5t70 -203.5q0 -136 -60.5 -222t-169.5 -124.5t-264 -38.5h-515z
M600 753q152 0 232.5 73.5t80.5 213.5q0 69 -22.5 114.5t-62 72.5t-93.5 38.5t-117 11.5q-38 0 -100 -2t-93 -4v-518h175zM425 95q73 -7 163 -7q131 0 203.5 33t105 97.5t32.5 161.5t-35.5 160t-109.5 94t-204 31h-155v-570z" />
    <glyph glyph-name="Gamma" unicode="&#x393;" horiz-adv-x="1098" 
d="M938 1020q-41 159 -87.5 208.5t-127.5 49.5h-297v-1024q0 -97 20 -141t115 -64v-49h-440v49q78 21 98.5 53.5t20.5 147.5v868q0 133 -26 160t-93 43v49h911v-350h-94z" />
    <glyph glyph-name="uni0394" unicode="&#x394;" horiz-adv-x="1220" 
d="M51 0v64l523 1317h148l422 -1317v-64h-1093zM228 160h696l-315 1000z" />
    <glyph glyph-name="Epsilon" unicode="&#x395;" horiz-adv-x="1178" 
d="M1056 1365v-302h-98q-15 49 -31 86t-33 62t-37.5 40t-48.5 20.5t-67 5.5h-316v-524h214q44 0 69 12.5t41.5 42.5t31.5 94h94v-384h-94q-14 60 -31 90.5t-40.5 43.5t-70.5 13h-214v-577h311q49 0 79.5 8.5t52.5 29t39 53.5t28.5 68.5t31.5 103.5h99l-19 -351h-926v49
q62 16 83 35.5t27.5 55.5t6.5 110v865q0 69 -5 100.5t-16.5 49t-30.5 28t-65 23.5v49h935z" />
    <glyph glyph-name="Zeta" unicode="&#x396;" horiz-adv-x="1101" 
d="M327 92h361q67 0 99.5 12.5t53.5 39t38 74.5t41 149h98v-367h-924v49l685 1224h-363q-39 0 -61.5 -6.5t-40.5 -20t-35.5 -39.5t-35 -71.5t-36.5 -113.5h-98v343h902v-48z" />
    <glyph glyph-name="Eta" unicode="&#x397;" horiz-adv-x="1406" 
d="M1168 250q0 -58 3 -87t10 -46.5t17 -28.5t28.5 -20t57.5 -19v-49h-419v49q55 14 77 31t30.5 52t8.5 118v419h-556v-419q0 -67 4.5 -98t15 -49t31 -30t66.5 -24v-49h-421v49q62 16 83 35.5t27.5 55.5t6.5 110v865q0 69 -5 100.5t-16.5 49t-30.5 28t-65 23.5v49h421v-49
q-44 -11 -63.5 -22t-31 -27.5t-17 -49.5t-5.5 -102v-354h556v354q0 87 -8.5 119t-28.5 49t-79 33v49h419v-49q-56 -14 -78 -31.5t-30 -52.5t-8 -117v-865z" />
    <glyph glyph-name="Theta" unicode="&#x398;" horiz-adv-x="1338" 
d="M654 -16q-262 0 -398.5 176t-136.5 511q0 338 151.5 524t404.5 186q266 0 405 -175.5t139 -505.5q0 -344 -149.5 -530t-415.5 -186zM321 699q0 -307 90.5 -467t264.5 -160q168 0 254.5 156.5t86.5 429.5q0 309 -90.5 472t-258.5 163q-347 0 -347 -594zM882 845v-310h-74
q-22 90 -98 90h-82q-43 0 -62.5 -18.5t-34.5 -71.5h-75v310h75q20 -92 109 -92h60q52 0 74 20.5t34 71.5h74z" />
    <glyph glyph-name="Iota" unicode="&#x399;" horiz-adv-x="664" 
d="M426 250q0 -67 4.5 -98t15 -49t31 -30t66.5 -24v-49h-422v49q62 16 83 35.5t27.5 55.5t6.5 110v865q0 69 -5 100.5t-16.5 49t-30.5 28t-65 23.5v49h422v-49q-44 -11 -63.5 -22t-31 -27.5t-17 -49.5t-5.5 -102v-865z" />
    <glyph glyph-name="Kappa" unicode="&#x39a;" horiz-adv-x="1289" 
d="M424 748h30q38 0 69.5 12t70.5 45t119 123q96 107 131 155q44 57 59 96q12 29 12 56q0 40 -23 58.5t-63 22.5v49h436v-49q-32 -7 -63 -24.5t-63.5 -48t-95.5 -100.5l-336 -378l364 -529q58 -84 91 -117.5t63 -49t64 -20.5v-49h-441v49q37 3 54 14t17 33q0 18 -11.5 43.5
t-36.5 61.5l-233 347q-41 62 -60 82t-41 29.5t-59 9.5h-53v-419q0 -67 4.5 -98t15 -49t31 -30t66.5 -24v-49h-421v49q62 16 83 35.5t27.5 55.5t6.5 110v865q0 69 -5 100.5t-16.5 49t-30.5 28t-65 23.5v49h421v-49q-44 -11 -63.5 -22t-31 -27.5t-17 -49.5t-5.5 -102z" />
    <glyph glyph-name="Lambda" unicode="&#x39b;" horiz-adv-x="1240" 
d="M769 0v49q74 13 96 39t22 74q0 54 -31 162l-234 816l-274 -785q-43 -123 -43 -181q0 -108 121 -125v-49h-420v49q63 12 98 61.5t77 162.5l415 1108h131l337 -1115q42 -139 73.5 -171.5t83.5 -45.5v-49h-452z" />
    <glyph glyph-name="Mu" unicode="&#x39c;" horiz-adv-x="1670" 
d="M1549 1316q-44 -11 -63.5 -22t-31 -27.5t-17 -49.5t-5.5 -102v-865q0 -67 4.5 -98t15 -49t31 -30t66.5 -24v-49h-417v49q57 14 79 32t30 53t8 116v383q0 151 4.5 305.5t10.5 211.5h-17l-396 -991h-115l-368 1007h-17q5 -61 9.5 -221t4.5 -329v-366q0 -67 4.5 -98t15 -49
t31 -30t66.5 -24v-49h-365v49q62 16 83 35.5t27.5 55.5t6.5 110v865q0 69 -5 100.5t-16.5 49t-30.5 28t-65 23.5v49h357l351 -973l386 973h338v-49z" />
    <glyph glyph-name="Nu" unicode="&#x39d;" horiz-adv-x="1394" 
d="M924 541q36 -60 60.5 -105t50.5 -101h13q-5 61 -9 242.5t-4 327.5v210q0 69 -4 101t-14.5 49t-29 27.5t-64.5 23.5v49h360v-49q-45 -12 -63.5 -22t-30 -26t-17.5 -48t-6 -105v-1121h-125l-557 934q-52 87 -74 127t-41 79h-17q7 -77 10 -278.5t3 -401.5v-204
q0 -67 4.5 -98t15 -49t31 -30t66.5 -24v-49h-365v49q62 16 83 35.5t27.5 55.5t6.5 110v865q0 69 -5 100.5t-16.5 49t-30.5 28t-65 23.5v49h313z" />
    <glyph glyph-name="Xi" unicode="&#x39e;" horiz-adv-x="1171" 
d="M1039 1365v-320h-100q-37 118 -66.5 139t-124.5 21h-325q-93 0 -125.5 -20.5t-65.5 -139.5h-100v320h907zM527 641q-59 0 -85.5 -20t-43.5 -89h-86v356h86q17 -71 42 -90.5t87 -19.5h117q62 0 87 19.5t42 90.5h86v-356h-86q-17 69 -43.5 89t-85.5 20h-117zM133 0l-19 356
h100q25 -138 62.5 -167t138.5 -29h333q110 0 147 30t62 166h100l-20 -356h-904z" />
    <glyph glyph-name="Omicron" unicode="&#x39f;" horiz-adv-x="1338" 
d="M654 -16q-120 0 -218.5 39.5t-169 123t-109 213.5t-38.5 311q0 223 68 383t194.5 243.5t293.5 83.5q178 0 299.5 -78.5t183 -231t61.5 -371.5q0 -234 -70 -395t-197.5 -241t-297.5 -80zM325 699q0 -307 89.5 -467t261.5 -160q109 0 185 69.5t114 203.5t38 313
q0 218 -44.5 361.5t-121.5 208.5t-179 65q-90 0 -154.5 -42t-107 -119.5t-62 -187.5t-19.5 -245z" />
    <glyph glyph-name="Pi" unicode="&#x3a0;" horiz-adv-x="1381" 
d="M1259 1365v-49q-74 -18 -95 -48.5t-21 -152.5v-865q0 -119 21 -151t95 -50v-49h-420v49q71 17 93.5 46.5t22.5 154.5v1023h-530v-1023q0 -125 23.5 -154.5t93.5 -46.5v-49h-421v49q73 18 95 48t22 153v865q0 125 -23.5 154.5t-93.5 46.5v49h1138z" />
    <glyph glyph-name="Rho" unicode="&#x3a1;" horiz-adv-x="1163" 
d="M425 253q0 -59 6.5 -94t20 -55.5t36.5 -32t72 -22.5v-49h-439v49q62 16 83 35.5t27.5 55.5t6.5 110v865q0 69 -5 100.5t-16.5 49t-30.5 28t-65 23.5v49h496q234 0 348.5 -89.5t114.5 -272.5q0 -104 -36 -187t-102 -136t-156 -76t-189 -23q-111 0 -172 4v-332zM425 668
h116q113 0 186.5 29.5t112.5 98t39 181.5q0 86 -23 143.5t-63.5 92.5t-96.5 49.5t-122 14.5q-99 0 -149 -4v-605z" />
    <glyph glyph-name="Sigma" unicode="&#x3a3;" horiz-adv-x="1122" 
d="M317 1273l343 -518v-59l-385 -531h453q87 0 126 39t64 177h100l-22 -381h-948v49l448 616l-420 651v49h924v-349h-94q-41 161 -84.5 209t-125.5 48h-379z" />
    <glyph glyph-name="Tau" unicode="&#x3a4;" horiz-adv-x="1214" 
d="M66 1365h1082v-348h-98q-22 86 -43.5 136t-45.5 76t-51.5 37t-82.5 11h-127v-1024q0 -59 6.5 -94t20 -55.5t36.5 -32t72 -22.5v-49h-457v49q30 7 53 15t37.5 19.5t24 29.5t15 49t5.5 91v1024h-126q-47 0 -77.5 -9t-56.5 -37.5t-47.5 -81t-40.5 -132.5h-99v348z" />
    <glyph glyph-name="Upsilon" unicode="&#x3a5;" horiz-adv-x="1244" 
d="M501 388q0 183 -96 468t-150 348t-103 63q-63 0 -120 -53l-47 63q81 65 130 84.5t117 19.5q88 0 148.5 -48t119 -206t115.5 -474h14q38 168 118 379t161.5 280t184.5 69q55 0 109 -23v-184h-91q-22 50 -67 50q-58 0 -112.5 -70t-149 -323.5t-94.5 -442.5v-135
q0 -101 22 -144t113 -60v-49h-457v49q94 20 114.5 63.5t20.5 140.5v135z" />
    <glyph glyph-name="Phi" unicode="&#x3a6;" horiz-adv-x="1608" 
d="M894 238v-5q0 -102 21 -134t96 -50v-49h-414v49q76 18 96.5 50t20.5 134v4q-296 8 -447 112.5t-151 323.5q0 441 598 468q0 106 -26 133.5t-91 41.5v49h414v-49q-65 -15 -91 -42t-26 -131h1q266 0 431.5 -103.5t165.5 -322.5q0 -226 -145 -343t-453 -136zM894 1061v-740
q397 13 397 372q0 366 -397 368zM714 318v740q-397 -17 -397 -370q0 -186 93.5 -276t303.5 -94z" />
    <glyph glyph-name="Chi" unicode="&#x3a7;" horiz-adv-x="1170" 
d="M481 1365v-49q-48 -7 -69 -26t-21 -52q0 -28 19 -70t54 -100l145 -243l143 231q32 52 48 83t22.5 52t6.5 43q0 31 -18 52.5t-60 29.5v49h371v-49q-37 -12 -66.5 -35t-63 -67t-95.5 -139l-226 -350l254 -418q54 -89 77.5 -124.5t44 -60t44 -42.5t58.5 -31v-49h-439v49
q46 8 68 25.5t22 52.5q0 28 -14.5 62t-44.5 84l-181 302l-191 -313q-48 -79 -48 -130q0 -33 18 -54t60 -29v-49h-378v49q37 11 61 26.5t46 39.5t49 61t86 129l236 368l-282 464q-40 64 -60.5 93t-38 47t-31.5 25.5t-32 13.5v49h426z" />
    <glyph glyph-name="Psi" unicode="&#x3a8;" horiz-adv-x="1603" 
d="M892 591q210 7 286.5 102.5t76.5 316.5v355h293v-49q-66 -17 -86 -53t-20 -149v-143q0 -257 -143 -359.5t-407 -106.5v-255q0 -125 23.5 -154.5t93.5 -46.5v-49h-421v49q73 18 95 48t22 153v255q-274 5 -411.5 106.5t-137.5 348.5v141q0 121 -18.5 159.5t-87.5 55.5v49
h293v-355q0 -171 36.5 -251t111.5 -122t214 -45v523q0 125 -23.5 154.5t-93.5 46.5v49h421v-49q-69 -17 -93 -44.5t-24 -156.5v-524z" />
    <glyph glyph-name="uni03A9" unicode="&#x3a9;" horiz-adv-x="1391" 
d="M417 155v24q-250 300 -250 619q0 262 150 422.5t391 160.5q250 0 382.5 -145.5t132.5 -407.5q0 -343 -260 -654v-19h91q96 0 127.5 22t48.5 106h98l-30 -283h-463v144q187 325 187 658q0 491 -335 491q-150 0 -234.5 -126.5t-84.5 -359.5q0 -341 186 -663v-144h-461
l-30 282h98q18 -85 45 -106t124 -21h87z" />
    <glyph glyph-name="Iotadieresis" unicode="&#x3aa;" horiz-adv-x="664" 
d="M426 250q0 -67 4.5 -98t15 -49t31 -30t66.5 -24v-49h-422v49q62 16 83 35.5t27.5 55.5t6.5 110v865q0 69 -5 100.5t-16.5 49t-30.5 28t-65 23.5v49h422v-49q-44 -11 -63.5 -22t-31 -27.5t-17 -49.5t-5.5 -102v-865zM600 1690v-176h-167v176h167zM231 1690v-176h-167v176
h167z" />
    <glyph glyph-name="Upsilondieresis" unicode="&#x3ab;" horiz-adv-x="1244" 
d="M501 388q0 183 -96 468t-150 348t-103 63q-63 0 -120 -53l-47 63q81 65 130 84.5t117 19.5q88 0 148.5 -48t119 -206t115.5 -474h14q38 168 118 379t161.5 280t184.5 69q55 0 109 -23v-184h-91q-22 50 -67 50q-58 0 -112.5 -70t-149 -323.5t-94.5 -442.5v-135
q0 -101 22 -144t113 -60v-49h-457v49q94 20 114.5 63.5t20.5 140.5v135zM916 1690v-176h-167v176h167zM547 1690v-176h-167v176h167z" />
    <glyph glyph-name="alphatonos" unicode="&#x3ac;" horiz-adv-x="1176" 
d="M1164 77q-107 -93 -214 -93q-153 0 -184 280h-11q-137 -280 -336 -280q-149 0 -232 123t-83 351q0 235 119 375t288 140q126 0 197.5 -60t123.5 -201h15l70 244h164v-49q-72 -111 -192 -411q21 -202 49 -304t90 -102q41 0 97 46zM750 483q-27 225 -79.5 318t-151.5 93
q-106 0 -169 -115.5t-63 -307.5q0 -369 183 -369q195 0 280 381zM796 1487v-50l-228 -377l-73 36l124 391h177z" />
    <glyph glyph-name="epsilontonos" unicode="&#x3ad;" horiz-adv-x="909" 
d="M872 147q-182 -163 -421 -163q-164 0 -254.5 68.5t-90.5 191.5q0 90 64 161t184 105v10q-215 57 -215 228q0 101 100.5 165t276.5 64q126 0 305 -55v-172h-102q-63 147 -219 147q-78 0 -128 -41t-50 -115q0 -89 60 -129.5t210 -40.5h57v-108h-90q-132 0 -199 -46.5
t-67 -137.5q0 -177 217 -177q164 0 305 117zM719 1487v-50l-228 -377l-73 36l124 391h177z" />
    <glyph glyph-name="etatonos" unicode="&#x3ae;" horiz-adv-x="1112" 
d="M761 -430v938q0 217 -40 280.5t-128 63.5q-65 0 -143 -70t-78 -159v-623h-172v733q0 134 -72 134q-44 0 -94 -42l-39 60q113 87 210 87q148 0 162 -171l5 -3q167 174 304 174q113 0 185 -68.5t72 -286.5v-1047h-172zM776 1487v-50l-228 -377l-73 36l124 391h177z" />
    <glyph glyph-name="iotatonos" unicode="&#x3af;" horiz-adv-x="582" 
d="M178 956h172v-706q0 -161 112 -161q53 0 100 40l41 -58q-105 -87 -209 -87q-216 0 -216 253v719zM498 1487v-50l-228 -377l-73 36l124 391h177z" />
    <glyph glyph-name="upsilondieresistonos" unicode="&#x3b0;" horiz-adv-x="1108" 
d="M39 834l-39 57q106 86 193 86t125 -60.5t38 -197.5v-305q0 -324 228 -324q118 0 186 94.5t68 266.5q0 320 -125 454v53h192q84 -180 84 -436q0 -233 -123 -385.5t-325 -152.5q-189 0 -274 105t-85 319v286q0 119 -12 147.5t-43 28.5q-29 0 -88 -36zM694 1487v-50
l-211 -377l-73 36l139 391h145zM871 1339v-176h-143v176h143zM343 1339v-176h-143v176h143z" />
    <glyph glyph-name="alpha" unicode="&#x3b1;" horiz-adv-x="1176" 
d="M1164 77q-107 -93 -214 -93q-153 0 -184 280h-11q-137 -280 -336 -280q-149 0 -232 123t-83 351q0 235 119 375t288 140q126 0 197.5 -60t123.5 -201h15l70 244h164v-49q-72 -111 -192 -411q21 -202 49 -304t90 -102q41 0 97 46zM750 483q-27 225 -79.5 318t-151.5 93
q-106 0 -169 -115.5t-63 -307.5q0 -369 183 -369q195 0 280 381z" />
    <glyph glyph-name="beta" unicode="&#x3b2;" horiz-adv-x="1137" 
d="M346 70v-502h-172v1304q0 564 453 564q171 0 271.5 -84.5t100.5 -233.5q0 -257 -290 -352v-8q327 -75 327 -383q0 -190 -119 -290.5t-294 -100.5q-158 0 -277 86zM500 711v80q141 5 230 91.5t89 227.5q0 115 -57.5 178.5t-155.5 63.5q-139 0 -199.5 -122.5t-60.5 -371.5
v-594q0 -92 71.5 -145t168.5 -53q262 0 262 296q0 159 -90.5 252t-257.5 97z" />
    <glyph glyph-name="gamma" unicode="&#x3b3;" horiz-adv-x="1038" 
d="M1008 909q-304 -511 -473 -895q10 -105 10 -241q0 -67 -4 -117l-90 -57h-103v63q0 166 68 324q-36 364 -123 624t-187 260q-33 0 -92 -43l-41 58q117 92 209 92q142 0 225.5 -193.5t108.5 -580.5h12q212 512 279 755h201v-49z" />
    <glyph glyph-name="delta" unicode="&#x3b4;" horiz-adv-x="1075" 
d="M477 899q-125 108 -167 173.5t-42 129.5q0 103 87 167.5t233 64.5q209 0 354 -107v-145h-96q-81 172 -256 172q-85 0 -129.5 -37.5t-44.5 -89.5q0 -47 39 -92t227 -201q151 -126 221 -240t70 -270q0 -198 -125 -319t-316 -121q-192 0 -311 121.5t-119 314.5
q0 350 375 479zM549 840q-260 -114 -260 -437q0 -152 67.5 -246t173.5 -94q121 0 188.5 97.5t67.5 263.5q0 124 -56.5 220t-180.5 196z" />
    <glyph glyph-name="epsilon" unicode="&#x3b5;" horiz-adv-x="909" 
d="M872 147q-182 -163 -421 -163q-164 0 -254.5 68.5t-90.5 191.5q0 90 64 161t184 105v10q-215 57 -215 228q0 101 100.5 165t276.5 64q126 0 305 -55v-172h-102q-63 147 -219 147q-78 0 -128 -41t-50 -115q0 -89 60 -129.5t210 -40.5h57v-108h-90q-132 0 -199 -46.5
t-67 -137.5q0 -177 217 -177q164 0 305 117z" />
    <glyph glyph-name="zeta" unicode="&#x3b6;" horiz-adv-x="819" 
d="M786 1332q-292 -306 -394 -496t-102 -394q0 -96 27.5 -153.5t75 -88t162.5 -56.5q135 -29 180 -75t45 -122q0 -106 -77 -195.5t-213 -181.5l-59 71q183 132 183 261q0 59 -27.5 79.5t-134.5 44.5q-210 44 -278.5 144.5t-68.5 250.5q0 190 111.5 384.5t372.5 439.5v10
h-427v126h624v-49z" />
    <glyph glyph-name="eta" unicode="&#x3b7;" horiz-adv-x="1112" 
d="M761 -430v938q0 217 -40 280.5t-128 63.5q-65 0 -143 -70t-78 -159v-623h-172v733q0 134 -72 134q-44 0 -94 -42l-39 60q113 87 210 87q148 0 162 -171l5 -3q167 174 304 174q113 0 185 -68.5t72 -286.5v-1047h-172z" />
    <glyph glyph-name="theta" unicode="&#x3b8;" horiz-adv-x="1120" 
d="M547 -16q-220 0 -322 171.5t-102 523.5q0 353 112 538t328 185q219 0 325 -169t106 -522q0 -364 -112 -545.5t-335 -181.5zM307 749h502q-14 574 -250 574q-244 0 -252 -574zM810 647h-503q11 -583 255 -583t248 583zM1120 1421z" />
    <glyph glyph-name="iota" unicode="&#x3b9;" horiz-adv-x="582" 
d="M178 956h172v-706q0 -161 112 -161q53 0 100 40l41 -58q-105 -87 -209 -87q-216 0 -216 253v719z" />
    <glyph glyph-name="kappa" unicode="&#x3ba;" horiz-adv-x="1079" 
d="M1112 78q-116 -94 -233 -94q-69 0 -115.5 38t-93.5 125l-185 338q-40 -34 -118 -79v-406h-172v684q0 130 -16 166.5t-107 52.5v53l233 11h62v-475q112 75 286 284q113 138 166.5 169.5t116.5 31.5q54 0 100 -16v-189h-80q-23 45 -71 45q-42 0 -88 -37.5t-187 -191.5
l240 -402q57 -96 123 -96q49 0 100 47z" />
    <glyph glyph-name="lambda" unicode="&#x3bb;" horiz-adv-x="999" 
d="M22 49q87 110 168 270l321 629q-51 200 -95.5 281t-136.5 81q-85 0 -162 -84l-49 54q138 151 273 151q94 0 146 -53.5t87 -170.5t99 -452q83 -437 129.5 -551.5t110.5 -114.5q46 0 85 32l38 -60q-99 -77 -178 -77q-112 0 -160 115t-134 619h-6q-170 -345 -333 -718h-203
v49z" />
    <glyph glyph-name="uni03BC" unicode="&#x3bc;" horiz-adv-x="1118" 
d="M353 405q0 -188 40 -244.5t130 -56.5q72 0 145.5 71t73.5 159v623h172v-750q0 -117 72 -117q44 0 94 42l39 -60q-105 -87 -210 -87q-149 0 -162 171l-9 3q-151 -168 -288 -168q-76 0 -136 58l-8 -6q17 -199 51 -331v-55l-87 -58h-89v1357h172v-551z" />
    <glyph glyph-name="nu" unicode="&#x3bd;" horiz-adv-x="987" 
d="M11 956h248q118 -259 245 -818q227 315 227 558q0 118 -36 209v51h195q11 -67 11 -134q0 -177 -82 -352.5t-300 -478.5h-133q-96 366 -172.5 590.5t-115.5 268.5t-87 53v53z" />
    <glyph glyph-name="xi" unicode="&#x3be;" horiz-adv-x="829" 
d="M448 -359q183 130 183 261q0 53 -26 77t-106 40q-218 41 -308.5 128.5t-90.5 234.5q0 274 316 361v12q-242 64 -242 248q0 189 276 255v18h-92q-140 0 -195 34t-58 125h176q8 -84 147 -84h365v-79l-46 -3q-186 -12 -290 -79.5t-104 -181.5q0 -103 62 -152t221 -49h87v-96
h-63q-179 0 -277.5 -81t-98.5 -224q0 -101 49.5 -161t201.5 -93q151 -32 206.5 -72t55.5 -133q0 -106 -77 -195.5t-213 -181.5z" />
    <glyph glyph-name="omicron" unicode="&#x3bf;" horiz-adv-x="1087" 
d="M532 -16q-208 0 -317.5 122.5t-109.5 362.5q0 165 57.5 279t157.5 169.5t228 55.5q214 0 324 -124.5t110 -357.5q0 -166 -55 -280t-156 -170.5t-239 -56.5zM294 490q0 -206 65.5 -316.5t187.5 -110.5q67 0 114 32.5t76.5 87.5t42.5 127.5t13 151.5q0 147 -32.5 244
t-88.5 142.5t-128 45.5q-121 0 -185.5 -105t-64.5 -299z" />
    <glyph glyph-name="pi" unicode="&#x3c0;" horiz-adv-x="1233" 
d="M287 821q-71 0 -115 -23t-97 -92l-62 54q85 119 150 157.5t177 38.5h843v-135h-242v-600q0 -131 75 -131q43 0 103 50l39 -60q-112 -96 -218 -96q-86 0 -128.5 58t-42.5 195v584h-307v-821h-201v49q62 235 62 634v138h-36z" />
    <glyph glyph-name="rho" unicode="&#x3c1;" horiz-adv-x="1090" 
d="M313 70v-502h-172v883q0 526 447 526q188 0 291.5 -123.5t103.5 -345.5q0 -255 -113 -389.5t-307 -134.5q-147 0 -250 86zM313 428v-164q0 -87 68 -142.5t162 -55.5q252 0 252 397q0 434 -226 434q-256 0 -256 -469z" />
    <glyph glyph-name="sigma1" unicode="&#x3c2;" horiz-adv-x="883" 
d="M830 929v-186h-123q-53 146 -188 146q-100 0 -167 -94t-67 -260q0 -147 55 -229t232 -141q117 -41 167 -85.5t50 -128.5q0 -99 -73.5 -189t-217.5 -192l-59 71q184 136 184 262q0 55 -30 83t-99 53q-220 78 -304.5 186.5t-84.5 285.5q0 203 125 332.5t332 129.5
q139 0 268 -44z" />
    <glyph glyph-name="sigma" unicode="&#x3c3;" horiz-adv-x="1171" 
d="M766 823v-8q213 -126 213 -387q0 -204 -123 -324t-326 -120q-196 0 -313 124t-117 324q0 201 85.5 321.5t215.5 162.5t322 42h403v-135h-360zM637 819q-350 0 -350 -389q0 -175 65 -271t180 -96q261 0 261 359q0 246 -156 397z" />
    <glyph glyph-name="tau" unicode="&#x3c4;" horiz-adv-x="979" 
d="M549 823v-573q0 -160 123 -160q56 0 123 53l41 -59q-126 -100 -232 -100q-116 0 -171.5 60t-55.5 194v585h-88q-79 0 -122 -25.5t-91 -88.5l-64 53q92 125 157 160.5t173 35.5h590v-135h-383z" />
    <glyph glyph-name="upsilon" unicode="&#x3c5;" horiz-adv-x="1108" 
d="M39 834l-39 57q106 86 193 86t125 -60.5t38 -197.5v-305q0 -324 228 -324q118 0 186 94.5t68 266.5q0 320 -125 454v53h192q84 -180 84 -436q0 -233 -123 -385.5t-325 -152.5q-189 0 -274 105t-85 319v286q0 119 -12 147.5t-43 28.5q-29 0 -88 -36z" />
    <glyph glyph-name="phi" unicode="&#x3c6;" horiz-adv-x="1458" 
d="M788 -12v-420h-167v420q-517 22 -517 444q0 314 351 545l59 -70q-219 -169 -219 -452q0 -358 326 -385v434q0 217 95 343t269 126q160 0 264.5 -116t104.5 -322q0 -257 -144 -397.5t-422 -149.5zM788 66q379 21 379 473q0 166 -53.5 258t-144.5 92q-68 0 -114 -50.5
t-56.5 -135t-10.5 -269.5v-368z" />
    <glyph glyph-name="chi" unicode="&#x3c7;" horiz-adv-x="995" 
d="M306 -128q-67 -127 -118 -251h-198v48q48 53 177 259l256 411q-78 235 -126 349t-81 146t-76 32q-34 0 -89 -39l-41 58q109 88 203 88q99 0 151.5 -91t144.5 -440l139 276q83 165 114 238h197v-48q-49 -53 -176 -256l-222 -358q118 -377 173 -477.5t124 -100.5
q34 0 88 40l41 -59q-110 -89 -196 -89q-109 0 -162.5 94t-153.5 491z" />
    <glyph glyph-name="psi" unicode="&#x3c8;" horiz-adv-x="1473" 
d="M1398 907q-76 -18 -94 -52t-18 -168v-187q0 -271 -117 -389.5t-352 -121.5v-419h-166v419q-239 2 -354 113.5t-115 357.5v227q0 116 -17 159.5t-96 60.5v49h287v-477q0 -218 69 -308t226 -102v1312h166v-1312q169 17 232 109.5t63 304.5v473h286v-49z" />
    <glyph glyph-name="omega" unicode="&#x3c9;" horiz-adv-x="1538" 
d="M768 154q-83 -170 -281 -170q-182 0 -284.5 115.5t-102.5 320.5q0 328 351 557l55 -68q-213 -166 -213 -499q0 -175 56 -261t151 -86q87 0 134.5 69.5t47.5 195.5v348h174v-348q0 -128 48 -196.5t134 -68.5q100 0 154.5 89t54.5 258q0 174 -50.5 288.5t-164.5 210.5
l58 68q350 -235 350 -559q0 -208 -106.5 -321t-282.5 -113q-194 0 -283 170z" />
    <glyph glyph-name="iotadieresis" unicode="&#x3ca;" horiz-adv-x="582" 
d="M178 956h172v-706q0 -161 112 -161q53 0 100 40l41 -58q-105 -87 -209 -87q-216 0 -216 253v719zM542 1339v-176h-167v176h167zM203 1339v-176h-167v176h167z" />
    <glyph glyph-name="upsilondieresis" unicode="&#x3cb;" horiz-adv-x="1108" 
d="M39 834l-39 57q106 86 193 86t125 -60.5t38 -197.5v-305q0 -324 228 -324q118 0 186 94.5t68 266.5q0 320 -125 454v53h192q84 -180 84 -436q0 -233 -123 -385.5t-325 -152.5q-189 0 -274 105t-85 319v286q0 119 -12 147.5t-43 28.5q-29 0 -88 -36zM789 1339v-176h-167
v176h167zM450 1339v-176h-167v176h167z" />
    <glyph glyph-name="omicrontonos" unicode="&#x3cc;" horiz-adv-x="1087" 
d="M532 -16q-208 0 -317.5 122.5t-109.5 362.5q0 165 57.5 279t157.5 169.5t228 55.5q214 0 324 -124.5t110 -357.5q0 -166 -55 -280t-156 -170.5t-239 -56.5zM294 490q0 -206 65.5 -316.5t187.5 -110.5q67 0 114 32.5t76.5 87.5t42.5 127.5t13 151.5q0 147 -32.5 244
t-88.5 142.5t-128 45.5q-121 0 -185.5 -105t-64.5 -299zM744 1487v-50l-228 -377l-73 36l124 391h177z" />
    <glyph glyph-name="upsilontonos" unicode="&#x3cd;" horiz-adv-x="1108" 
d="M39 834l-39 57q106 86 193 86t125 -60.5t38 -197.5v-305q0 -324 228 -324q118 0 186 94.5t68 266.5q0 320 -125 454v53h192q84 -180 84 -436q0 -233 -123 -385.5t-325 -152.5q-189 0 -274 105t-85 319v286q0 119 -12 147.5t-43 28.5q-29 0 -88 -36zM753 1487v-50
l-228 -377l-73 36l124 391h177z" />
    <glyph glyph-name="omegatonos" unicode="&#x3ce;" horiz-adv-x="1538" 
d="M768 154q-83 -170 -281 -170q-182 0 -284.5 115.5t-102.5 320.5q0 328 351 557l55 -68q-213 -166 -213 -499q0 -175 56 -261t151 -86q87 0 134.5 69.5t47.5 195.5v348h174v-348q0 -128 48 -196.5t134 -68.5q100 0 154.5 89t54.5 258q0 174 -50.5 288.5t-164.5 210.5
l58 68q350 -235 350 -559q0 -208 -106.5 -321t-282.5 -113q-194 0 -283 170zM981 1487v-50l-228 -377l-73 36l124 391h177z" />
    <glyph glyph-name="uni0400" unicode="&#x400;" horiz-adv-x="1178" 
d="M1056 1365v-302h-98q-15 49 -31 86t-33 62t-37.5 40t-48.5 20.5t-67 5.5h-316v-524h214q44 0 69 12.5t41.5 42.5t31.5 94h94v-384h-94q-14 60 -31 90.5t-40.5 43.5t-70.5 13h-214v-577h311q49 0 79.5 8.5t52.5 29t39 53.5t28.5 68.5t31.5 103.5h99l-19 -351h-926v49
q62 16 83 35.5t27.5 55.5t6.5 110v865q0 69 -5 100.5t-16.5 49t-30.5 28t-65 23.5v49h935zM526 1782l241 -257l-56 -57l-383 264v50h198z" />
    <glyph glyph-name="uni0401" unicode="&#x401;" horiz-adv-x="1178" 
d="M1056 1365v-302h-98q-15 49 -31 86t-33 62t-37.5 40t-48.5 20.5t-67 5.5h-316v-524h214q44 0 69 12.5t41.5 42.5t31.5 94h94v-384h-94q-14 60 -31 90.5t-40.5 43.5t-70.5 13h-214v-577h311q49 0 79.5 8.5t52.5 29t39 53.5t28.5 68.5t31.5 103.5h99l-19 -351h-926v49
q62 16 83 35.5t27.5 55.5t6.5 110v865q0 69 -5 100.5t-16.5 49t-30.5 28t-65 23.5v49h935zM877 1690v-176h-167v176h167zM508 1690v-176h-167v176h167z" />
    <glyph glyph-name="uni0402" unicode="&#x402;" horiz-adv-x="1513" 
d="M869 6v158h95q23 -86 98 -86q165 0 165 292q0 359 -315 359q-99 0 -216 -14v-715h-322v49q98 19 116 63.5t18 140.5v1024h-122q-91 0 -136.5 -49t-85.5 -196h-98v333h1080v-333h-100q-35 121 -75 183t-148 62h-127v-474q144 18 280 18q217 0 330 -105.5t113 -304.5
q0 -182 -106 -299.5t-284 -117.5q-82 0 -160 12z" />
    <glyph glyph-name="uni0403" unicode="&#x403;" horiz-adv-x="1094" 
d="M925 995q-31 159 -76 218.5t-136 59.5h-288v-1020q0 -106 27 -150t124 -54v-49h-455v49q73 17 95 47t22 153v865q0 125 -23.5 155t-93.5 47v49h902v-370h-98zM882 1782v-50l-382 -264l-56 57l241 257h197z" />
    <glyph glyph-name="uni0404" unicode="&#x404;" horiz-adv-x="1167" 
d="M1050 41q-210 -57 -415 -57q-516 0 -516 688q0 333 152.5 521t426.5 188q180 0 346 -49v-273h-95q-38 124 -98.5 179t-178.5 55q-150 0 -243.5 -134.5t-107.5 -390.5h548v-117h-551q2 -282 88.5 -430.5t248.5 -148.5q122 0 188 50t115 199h92v-280z" />
    <glyph glyph-name="uni0405" unicode="&#x405;" horiz-adv-x="1016" 
d="M212 311q20 -88 54 -139t88 -75.5t139 -24.5q117 0 179.5 61t62.5 178q0 75 -26 126t-85 96t-180 105q-117 58 -185 113.5t-101.5 120.5t-33.5 142q0 112 52.5 194.5t154 127.5t232.5 45q76 0 148.5 -8t181.5 -36v-270h-99q-23 88 -58 137t-82 68.5t-122 19.5
q-65 0 -116.5 -24t-81.5 -72.5t-30 -115.5q0 -71 25.5 -120t79.5 -91t160 -94q128 -64 198.5 -119t110 -125.5t39.5 -164.5q0 -105 -33 -177.5t-91.5 -118t-140 -66t-178.5 -20.5q-157 0 -362 53v274h100z" />
    <glyph glyph-name="uni0406" unicode="&#x406;" horiz-adv-x="664" 
d="M426 250q0 -67 4.5 -98t15 -49t31 -30t66.5 -24v-49h-422v49q62 16 83 35.5t27.5 55.5t6.5 110v865q0 69 -5 100.5t-16.5 49t-30.5 28t-65 23.5v49h422v-49q-44 -11 -63.5 -22t-31 -27.5t-17 -49.5t-5.5 -102v-865z" />
    <glyph glyph-name="uni0407" unicode="&#x407;" horiz-adv-x="664" 
d="M426 250q0 -67 4.5 -98t15 -49t31 -30t66.5 -24v-49h-422v49q62 16 83 35.5t27.5 55.5t6.5 110v865q0 69 -5 100.5t-16.5 49t-30.5 28t-65 23.5v49h422v-49q-44 -11 -63.5 -22t-31 -27.5t-17 -49.5t-5.5 -102v-865zM600 1690v-176h-167v176h167zM231 1690v-176h-167v176
h167z" />
    <glyph glyph-name="uni0408" unicode="&#x408;" horiz-adv-x="628" 
d="M408 68q0 -135 -31.5 -219t-106 -142t-208.5 -99l-33 88q88 34 125 68.5t51.5 86.5t14.5 140v1124q0 87 -8.5 119t-28 49t-80.5 33v49h422v-49q-44 -11 -63.5 -22t-31 -27.5t-17 -49.5t-5.5 -102v-1047z" />
    <glyph glyph-name="uni0409" unicode="&#x409;" horiz-adv-x="1915" 
d="M837 0v49q77 18 96.5 51t19.5 149v1028h-248q-22 -320 -112 -695t-185.5 -490t-222.5 -115q-66 0 -148 25v249h98q6 -112 73 -112q135 0 244 398.5t109 643.5q0 75 -23 101.5t-78 33.5v49h798v-49q-67 -17 -91.5 -44.5t-24.5 -157.5v-342q139 12 243 12q437 0 437 -379
q0 -405 -480 -405h-505zM1142 682v-588q69 -6 161 -6q174 0 252 76t78 230q0 296 -300 296q-131 0 -191 -8z" />
    <glyph glyph-name="uni040A" unicode="&#x40a;" horiz-adv-x="1909" 
d="M831 0v49q70 17 93 45t23 155v421h-522v-421q0 -126 23.5 -154.5t94.5 -45.5v-49h-422v49q68 16 93 43t25 157v865q0 132 -26 159t-92 43v49h422v-49q-79 -20 -98.5 -55t-19.5 -147v-352h522v352q0 119 -20.5 151.5t-95.5 50.5v49h420v-49q-65 -16 -90 -43t-25 -159v-342
q134 12 238 12q442 0 442 -379q0 -405 -489 -405h-496zM1136 682v-588q69 -6 148 -6q171 0 251 74.5t80 231.5q0 296 -300 296h-47q-63 0 -132 -8z" />
    <glyph glyph-name="uni040B" unicode="&#x40b;" horiz-adv-x="1542" 
d="M1058 0v49q77 19 96.5 52.5t19.5 145.5v172q0 187 -59 247.5t-186 60.5q-99 0 -233 -39v-435q0 -127 22.5 -156t94.5 -48v-49h-439v49q94 19 114 61.5t20 142.5v1024h-122q-104 0 -143.5 -54.5t-78.5 -190.5h-98v333h1080v-333h-100q-46 152 -90 198.5t-133 46.5h-127
v-501q166 45 319 45q142 0 217.5 -49t102.5 -119.5t27 -217.5v-186q0 -119 23.5 -151.5t91.5 -48.5v-49h-419z" />
    <glyph glyph-name="uni040C" unicode="&#x40c;" horiz-adv-x="1331" 
d="M947 0v49q-41 101 -69 177l-75 202q-38 102 -69 147t-72.5 66t-112.5 21h-122v-413q0 -120 21.5 -151t94.5 -49v-49h-422v49q68 16 93 43t25 157v865q0 132 -26 159t-92 43v49h422v-49q-67 -17 -91.5 -44.5t-24.5 -157.5v-366h120q81 0 127.5 48.5t118.5 248.5
q66 189 131.5 262.5t213.5 73.5q47 0 124 -22v-230h-99q-12 99 -87 99q-46 0 -79 -43t-91 -190q-46 -120 -80 -176.5t-93 -93.5v-8q164 -50 253 -249l90 -203q50 -113 91 -159.5t123 -56.5v-49h-343zM1019 1782v-50l-382 -264l-56 57l241 257h197z" />
    <glyph glyph-name="uni040D" unicode="&#x40d;" horiz-adv-x="1417" 
d="M876 0v49q76 20 96 52.5t20 147.5v430q0 211 4 271h-4l-569 -701q0 -120 21.5 -151t94.5 -49v-49h-418v49q77 20 97.5 52.5t20.5 147.5v865q0 132 -26 159t-92 43v49h418v-49q-67 -17 -91.5 -44.5t-24.5 -157.5v-440q0 -148 -6 -249h6l569 701q0 106 -20.5 138t-95.5 52
v49h416v-49q-67 -17 -91.5 -44.5t-24.5 -157.5v-865q0 -120 21.5 -151t94.5 -49v-49h-416zM663 1782l241 -257l-56 -57l-383 264v50h198z" />
    <glyph glyph-name="uni040E" unicode="&#x40e;" horiz-adv-x="1229" 
d="M1217 1316q-51 -16 -88.5 -59t-113.5 -206l-284 -610q-129 -277 -222.5 -370.5t-226.5 -93.5q-81 0 -151 23v255h108q9 -116 98 -116q119 0 220 194l-325 712q-76 167 -107.5 210t-87.5 61v49h429v-49q-96 -11 -96 -80q0 -64 59 -196l226 -507l200 462q64 148 64 223
q0 88 -86 98v49h384v-49zM962 1733q0 -111 -96.5 -174t-238.5 -63q-155 0 -240 61t-85 176v41h169v-41q0 -84 35.5 -123t122.5 -39q90 0 127 37.5t37 124.5v41h169v-41z" />
    <glyph glyph-name="uni040F" unicode="&#x40f;" horiz-adv-x="1366" 
d="M756 0l20 -298v-61h-190v61l20 298h-483v49q64 16 90 41.5t26 158.5v865q0 119 -20.5 151.5t-95.5 50.5v49h410v-49q-73 -20 -89.5 -51t-16.5 -151v-1022h510v1022q0 124 -23 154.5t-95 47.5v49h422v-49q-77 -20 -97.5 -53t-20.5 -149v-865q0 -114 20.5 -147t97.5 -53
v-49h-485z" />
    <glyph glyph-name="uni0410" unicode="&#x410;" horiz-adv-x="1276" 
d="M796 0v49q50 10 74.5 22t36.5 33.5t12 57.5q0 34 -8 73.5t-23 88.5l-37 129h-466l-34 -98q-26 -74 -34 -112t-8 -69q0 -60 30.5 -88t93.5 -37v-49h-427v49q56 9 97.5 65t80.5 160l417 1107h158l340 -1115q24 -78 42.5 -119t44.5 -64t71 -34v-49h-461zM412 540h418
l-190 645z" />
    <glyph glyph-name="uni0411" unicode="&#x411;" horiz-adv-x="1227" 
d="M121 0v49q77 20 97 52.5t20 147.5v865q0 125 -23.5 155t-93.5 47v49h923v-302h-99q-38 118 -77.5 166t-138.5 48h-304v-505q143 12 253 12q454 0 454 -379q0 -405 -501 -405h-510zM425 682v-588q73 -6 165 -6q182 0 260.5 75.5t78.5 230.5q0 296 -308 296q-130 0 -196 -8
z" />
    <glyph glyph-name="uni0412" unicode="&#x412;" horiz-adv-x="1252" 
d="M121 0v49q62 16 83 35.5t27.5 55.5t6.5 110v865q0 69 -5 100.5t-16.5 49t-30.5 28t-65 23.5v49h547q159 0 255.5 -34t143.5 -100.5t47 -171.5q0 -87 -33.5 -151t-87.5 -106t-139 -78v-9q136 -41 206 -126.5t70 -203.5q0 -136 -60.5 -222t-169.5 -124.5t-264 -38.5h-515z
M600 753q152 0 232.5 73.5t80.5 213.5q0 69 -22.5 114.5t-62 72.5t-93.5 38.5t-117 11.5q-38 0 -100 -2t-93 -4v-518h175zM425 95q73 -7 163 -7q131 0 203.5 33t105 97.5t32.5 161.5t-35.5 160t-109.5 94t-204 31h-155v-570z" />
    <glyph glyph-name="uni0413" unicode="&#x413;" horiz-adv-x="1094" 
d="M925 995q-31 159 -76 218.5t-136 59.5h-288v-1020q0 -106 27 -150t124 -54v-49h-455v49q73 17 95 47t22 153v865q0 125 -23.5 155t-93.5 47v49h902v-370h-98z" />
    <glyph glyph-name="uni0414" unicode="&#x414;" horiz-adv-x="1341" 
d="M1158 -359q-8 104 -38.5 201t-69.5 127.5t-105 30.5h-598q-102 0 -148 -91.5t-60 -267.5h-102v451h98q161 199 262 520t101 571q0 68 -20 97t-80 36v49h819v-49q-69 -17 -93.5 -44t-24.5 -158v-1022h161v-451h-102zM912 1277h-281q-61 -768 -347 -1185h628v1185z" />
    <glyph glyph-name="uni0415" unicode="&#x415;" horiz-adv-x="1178" 
d="M1056 1365v-302h-98q-15 49 -31 86t-33 62t-37.5 40t-48.5 20.5t-67 5.5h-316v-524h214q44 0 69 12.5t41.5 42.5t31.5 94h94v-384h-94q-14 60 -31 90.5t-40.5 43.5t-70.5 13h-214v-577h311q49 0 79.5 8.5t52.5 29t39 53.5t28.5 68.5t31.5 103.5h99l-19 -351h-926v49
q62 16 83 35.5t27.5 55.5t6.5 110v865q0 69 -5 100.5t-16.5 49t-30.5 28t-65 23.5v49h935z" />
    <glyph glyph-name="uni0416" unicode="&#x416;" horiz-adv-x="1890" 
d="M1508 0v49q-58 145 -95 248q-64 179 -91.5 240t-72.5 93t-122 32h-94v-413q0 -127 24.5 -155t92.5 -45v-49h-415v49q70 17 93 46t23 154v413h-93q-75 0 -120 -31.5t-75 -95t-92 -238.5q-74 -203 -95 -248v-49h-339v49q85 13 127.5 63t86.5 153l88 201q90 205 241 251v8
q-60 37 -90.5 87.5t-76.5 182.5q-49 137 -81 185t-77 48q-70 0 -86 -85h-97v216q73 22 124 22q146 0 207.5 -74.5t122.5 -261.5q69 -209 115.5 -253t122.5 -44h87v366q0 119 -20.5 151.5t-95.5 50.5v49h415v-49q-76 -21 -96.5 -53.5t-20.5 -148.5v-366h88q77 0 123 45.5
t114 251.5q65 193 126.5 264.5t206.5 71.5q50 0 123 -22v-216h-99q-16 85 -86 85q-50 0 -82.5 -56t-73.5 -177q-48 -138 -81 -187t-87 -83v-8q155 -47 240 -251l88 -201q52 -118 93.5 -160.5t120.5 -55.5v-49h-339z" />
    <glyph glyph-name="uni0417" unicode="&#x417;" horiz-adv-x="1112" 
d="M113 41v280h97q49 -142 115.5 -195.5t182.5 -53.5q132 0 206.5 76.5t74.5 219.5q0 116 -44.5 179t-110.5 82.5t-174 19.5h-160v119h162q158 0 229 70.5t71 214.5q0 113 -69 176.5t-177 63.5q-111 0 -178.5 -51t-117.5 -183h-97v263q234 59 426 59q413 0 413 -314
q0 -235 -264 -340v-14q292 -83 292 -341q0 -185 -125.5 -286.5t-371.5 -101.5q-183 0 -380 57z" />
    <glyph glyph-name="uni0418" unicode="&#x418;" horiz-adv-x="1417" 
d="M876 0v49q76 20 96 52.5t20 147.5v430q0 211 4 271h-4l-569 -701q0 -120 21.5 -151t94.5 -49v-49h-418v49q77 20 97.5 52.5t20.5 147.5v865q0 132 -26 159t-92 43v49h418v-49q-67 -17 -91.5 -44.5t-24.5 -157.5v-440q0 -148 -6 -249h6l569 701q0 106 -20.5 138t-95.5 52
v49h416v-49q-67 -17 -91.5 -44.5t-24.5 -157.5v-865q0 -120 21.5 -151t94.5 -49v-49h-416z" />
    <glyph glyph-name="uni0419" unicode="&#x419;" horiz-adv-x="1417" 
d="M876 0v49q76 20 96 52.5t20 147.5v430q0 211 4 271h-4l-569 -701q0 -120 21.5 -151t94.5 -49v-49h-418v49q77 20 97.5 52.5t20.5 147.5v865q0 132 -26 159t-92 43v49h418v-49q-67 -17 -91.5 -44.5t-24.5 -157.5v-440q0 -148 -6 -249h6l569 701q0 106 -20.5 138t-95.5 52
v49h416v-49q-67 -17 -91.5 -44.5t-24.5 -157.5v-865q0 -120 21.5 -151t94.5 -49v-49h-416zM1036 1733q0 -111 -96.5 -174t-238.5 -63q-155 0 -240 61t-85 176v41h169v-41q0 -84 35.5 -123t122.5 -39q90 0 127 37.5t37 124.5v41h169v-41z" />
    <glyph glyph-name="uni041A" unicode="&#x41a;" horiz-adv-x="1331" 
d="M947 0v49q-41 101 -69 177l-75 202q-38 102 -69 147t-72.5 66t-112.5 21h-122v-413q0 -120 21.5 -151t94.5 -49v-49h-422v49q68 16 93 43t25 157v865q0 132 -26 159t-92 43v49h422v-49q-67 -17 -91.5 -44.5t-24.5 -157.5v-366h120q81 0 127.5 48.5t118.5 248.5
q66 189 131.5 262.5t213.5 73.5q47 0 124 -22v-230h-99q-12 99 -87 99q-46 0 -79 -43t-91 -190q-46 -120 -80 -176.5t-93 -93.5v-8q164 -50 253 -249l90 -203q50 -113 91 -159.5t123 -56.5v-49h-343z" />
    <glyph glyph-name="uni041B" unicode="&#x41b;" horiz-adv-x="1388" 
d="M1266 0h-424v49q85 20 103 59t18 142v1027h-278q-21 -257 -81 -550t-125 -463t-133.5 -225t-154.5 -55t-155 24v202h98q9 -71 70 -71q45 0 88 45t100 220t105.5 420t48.5 357q0 74 -22 101.5t-79 34.5v48h821v-49q-74 -18 -95 -48.5t-21 -152.5v-865q0 -119 21 -151
t95 -50v-49z" />
    <glyph glyph-name="uni041C" unicode="&#x41c;" horiz-adv-x="1670" 
d="M1549 1316q-44 -11 -63.5 -22t-31 -27.5t-17 -49.5t-5.5 -102v-865q0 -67 4.5 -98t15 -49t31 -30t66.5 -24v-49h-417v49q57 14 79 32t30 53t8 116v383q0 151 4.5 305.5t10.5 211.5h-17l-396 -991h-115l-368 1007h-17q5 -61 9.5 -221t4.5 -329v-366q0 -67 4.5 -98t15 -49
t31 -30t66.5 -24v-49h-365v49q62 16 83 35.5t27.5 55.5t6.5 110v865q0 69 -5 100.5t-16.5 49t-30.5 28t-65 23.5v49h357l351 -973l386 973h338v-49z" />
    <glyph glyph-name="uni041D" unicode="&#x41d;" horiz-adv-x="1406" 
d="M1168 250q0 -58 3 -87t10 -46.5t17 -28.5t28.5 -20t57.5 -19v-49h-419v49q55 14 77 31t30.5 52t8.5 118v419h-556v-419q0 -67 4.5 -98t15 -49t31 -30t66.5 -24v-49h-421v49q62 16 83 35.5t27.5 55.5t6.5 110v865q0 69 -5 100.5t-16.5 49t-30.5 28t-65 23.5v49h421v-49
q-44 -11 -63.5 -22t-31 -27.5t-17 -49.5t-5.5 -102v-354h556v354q0 87 -8.5 119t-28.5 49t-79 33v49h419v-49q-56 -14 -78 -31.5t-30 -52.5t-8 -117v-865z" />
    <glyph glyph-name="uni041E" unicode="&#x41e;" horiz-adv-x="1338" 
d="M654 -16q-120 0 -218.5 39.5t-169 123t-109 213.5t-38.5 311q0 223 68 383t194.5 243.5t293.5 83.5q178 0 299.5 -78.5t183 -231t61.5 -371.5q0 -234 -70 -395t-197.5 -241t-297.5 -80zM325 699q0 -307 89.5 -467t261.5 -160q109 0 185 69.5t114 203.5t38 313
q0 218 -44.5 361.5t-121.5 208.5t-179 65q-90 0 -154.5 -42t-107 -119.5t-62 -187.5t-19.5 -245z" />
    <glyph glyph-name="uni041F" unicode="&#x41f;" horiz-adv-x="1381" 
d="M1259 1365v-49q-56 -14 -78 -31.5t-30 -52.5t-8 -117v-865q0 -58 3 -87t10 -46.5t17 -28.5t28.5 -20t57.5 -19v-49h-420v49q55 14 77 31t30.5 52t8.5 118v1023h-530v-1023q0 -67 4.5 -98t15 -49t31 -30t66.5 -24v-49h-421v49q62 16 83 35.5t27.5 55.5t6.5 110v865
q0 69 -5 100.5t-16.5 49t-30.5 28t-65 23.5v49h1138z" />
    <glyph glyph-name="uni0420" unicode="&#x420;" horiz-adv-x="1163" 
d="M425 253q0 -59 6.5 -94t20 -55.5t36.5 -32t72 -22.5v-49h-439v49q62 16 83 35.5t27.5 55.5t6.5 110v865q0 69 -5 100.5t-16.5 49t-30.5 28t-65 23.5v49h496q234 0 348.5 -89.5t114.5 -272.5q0 -104 -36 -187t-102 -136t-156 -76t-189 -23q-111 0 -172 4v-332zM425 668
h116q113 0 186.5 29.5t112.5 98t39 181.5q0 86 -23 143.5t-63.5 92.5t-96.5 49.5t-122 14.5q-99 0 -149 -4v-605z" />
    <glyph glyph-name="uni0421" unicode="&#x421;" horiz-adv-x="1152" 
d="M1042 1336v-277h-99q-24 87 -61 138.5t-86 73.5t-118 22q-103 0 -183.5 -68.5t-126.5 -206t-46 -332.5q0 -196 38 -334.5t112 -209t182 -70.5q82 0 134 23.5t87.5 74.5t67.5 150h99v-286q-94 -25 -192.5 -37.5t-216.5 -12.5q-254 0 -384 172t-130 513q0 214 67.5 375
t198.5 249t313 88q91 0 168 -9.5t176 -35.5z" />
    <glyph glyph-name="uni0422" unicode="&#x422;" horiz-adv-x="1214" 
d="M66 1365h1082v-348h-98q-22 86 -43.5 136t-45.5 76t-51.5 37t-82.5 11h-127v-1024q0 -59 6.5 -94t20 -55.5t36.5 -32t72 -22.5v-49h-457v49q30 7 53 15t37.5 19.5t24 29.5t15 49t5.5 91v1024h-126q-47 0 -77.5 -9t-56.5 -37.5t-47.5 -81t-40.5 -132.5h-99v348z" />
    <glyph glyph-name="uni0423" unicode="&#x423;" horiz-adv-x="1229" 
d="M1217 1316q-51 -16 -88.5 -59t-113.5 -206l-284 -610q-129 -277 -222.5 -370.5t-226.5 -93.5q-81 0 -151 23v255h108q9 -116 98 -116q119 0 220 194l-325 712q-76 167 -107.5 210t-87.5 61v49h429v-49q-96 -11 -96 -80q0 -64 59 -196l226 -507l200 462q64 148 64 223
q0 88 -86 98v49h384v-49z" />
    <glyph glyph-name="uni0424" unicode="&#x424;" horiz-adv-x="1595" 
d="M887 224v-4q0 -93 21 -123t100 -48v-49h-420v49q69 15 93 41t24 130v4q-304 8 -452.5 125.5t-148.5 357.5q0 231 153.5 361.5t447.5 144.5q0 85 -21.5 114t-95.5 45v49h416v-49q-70 -14 -93.5 -40.5t-23.5 -116.5q601 -15 601 -474q0 -237 -152.5 -369.5t-448.5 -147.5z
M887 1130v-818q404 16 404 411q0 204 -96 302.5t-308 104.5zM705 1127q-405 -16 -405 -408q0 -204 95.5 -304.5t309.5 -104.5v817z" />
    <glyph glyph-name="uni0425" unicode="&#x425;" horiz-adv-x="1170" 
d="M481 1365v-49q-48 -7 -69 -26t-21 -52q0 -28 19 -70t54 -100l145 -243l143 231q32 52 48 83t22.5 52t6.5 43q0 31 -18 52.5t-60 29.5v49h371v-49q-37 -12 -66.5 -35t-63 -67t-95.5 -139l-226 -350l254 -418q54 -89 77.5 -124.5t44 -60t44 -42.5t58.5 -31v-49h-439v49
q46 8 68 25.5t22 52.5q0 28 -14.5 62t-44.5 84l-181 302l-191 -313q-48 -79 -48 -130q0 -33 18 -54t60 -29v-49h-378v49q37 11 61 26.5t46 39.5t49 61t86 129l236 368l-282 464q-40 64 -60.5 93t-38 47t-31.5 25.5t-32 13.5v49h426z" />
    <glyph glyph-name="uni0426" unicode="&#x426;" horiz-adv-x="1376" 
d="M1192 -359q-9 108 -40 204t-69 125.5t-103 29.5h-857v49q75 20 95 52.5t20 147.5v865q0 121 -21.5 153t-93.5 49v49h420v-49q-67 -17 -91.5 -44.5t-24.5 -157.5v-1022h519v1022q0 125 -23.5 155t-93.5 47v49h420v-49q-65 -16 -90 -43t-25 -159v-1022h160v-451h-102z" />
    <glyph glyph-name="uni0427" unicode="&#x427;" horiz-adv-x="1282" 
d="M735 0v49q76 20 96 52.5t20 147.5v352q-165 -39 -312 -39q-186 0 -282.5 81t-96.5 281v190q0 118 -18 149t-95 53v49h417v-49q-76 -21 -96.5 -53.5t-20.5 -148.5v-188q0 -161 60.5 -215.5t180.5 -54.5q138 0 263 35v421q0 126 -23 156.5t-93 47.5v49h421v-49
q-76 -21 -96.5 -53.5t-20.5 -148.5v-865q0 -127 24.5 -155t92.5 -45v-49h-421z" />
    </font>
</defs>
</svg>
